Агент Ева / Ava (2020) BDRip 1080p | 60 fps Властелин колец: Трилогия / The Lord of the Rings: Trilogy (2001-2003) BDRip-AVC | Extended Cut | 60 fps Пятый элемент / The Fifth Element (1997) BDRip 1080p | 60 fps Форпост / The Outpost (2020) BDRip 1080p | 60 fps Охота / The Hunt (2020) BDRip 1080p | 60 fps Поезд смерти / D-Railed (2018) BDRip 1080p | 60 fps Вивариум / Vivarium (2019) BDRip 720p | 60 fps Ультрафиолет / Ultraviolet (2006) BDRip 1080p | 60 fps
  1. Longevity:
    6 years 4 months
    Posts:
    2414
    Gender:
    Male
    «O milosci w nieludzkich czasach»- Информация
    Название: Волынь
    Оригинальное название: Wolyn / Hatred
    Год выхода: 2016
    Жанр: Драма, военный, история
    Режиссер: Войчех Смажовски
    Сценарий: Войчех Смажовски
    В ролях: Михалина Лабач, Аркадиуш Якубик, Василий Василик, Адриан Заремба, Изабела Куна, Яцек Брацяк, Мария Собоциньская, Александр Збаражский, Владимир Процюк, Александр Чешеров, Лех Дыблик, Роман Скоровский, Захарьяш Мушиньский
    --Сюжет:
    События в фильме начинаются в летние месяцы 1939 года на территории Волыни, которая на тот период относилась к землям Польши. Между главной героиней, красивой польской девушкой Зосей, и украинским хлопцем возникает сильная любовь. Однако родители девушки отдают против её воли замуж за состоятельного вдовца. Скоро началась Вторая Мировая война и муж Зоси отправляется на фронт, оставив её со своими детьми. В то время, когда поляки терпят поражения от гитлеровской армии, в родном крае девушки происходят не менее чудовищные вещи. Украинские националисты начинают все чаще нападать на польское население, вырезая мирных жителей целыми селениями.- Страна: Польша
    Продолжительность: 02:28:56

    Файл
    Кодек: MPEG4 | ISO | AVC | H.264
    Формат: MKV
    Качество: BDRip 1080p | 60 fps
    Видео: 1920 x 804 (2.388) | 60.000 fps | 20.0 Мбит/сек
    Аудио: AC3 | 2.0 | 48 kHz | 192 kbps | 16 bit | Любительский одноголсый - Radamant |

    MedifInfo

    Видео
    Идентификатор : 1
    Формат : AVC
    Формат/Информация : Advanced Video Codec
    Профиль формата : [email protected]
    Параметр CABAC формата : Да
    Параметр ReFrames формата : 5 кадров
    Идентификатор кодека : V_MPEG4/ISO/AVC
    Продолжительность : 2 ч. 28 м.
    Битрейт : 20,0 Мбит/сек
    Ширина : 1920 пикселей
    Высота : 804 пикселя
    Соотношение сторон : 2,40:1
    Режим частоты кадров : Постоянный
    Частота кадров : 60,000 кадров/сек
    Цветовое пространство : YUV
    Субдискретизация насыщенности : 4:2:0
    Битовая глубина : 8 бит
    Тип развёртки : Прогрессивная
    Бит/(Пиксели*Кадры) : 0.216
    Размер потока : 20,4 Гбайт (97%)
    Заголовок : www.60-fps.org
    Библиотека кодирования : x264 core 148 r2638 7599210
    Настройки программы : cabac=1 / ref=5 / deblock=1:-3:-3 / analyse=0x3:0x113 / me=umh / subme=8 / psy=1 / psy_rd=1.00:0.25 / mixed_ref=1 / me_range=32 / chroma_me=1 / trellis=1 / 8x8dct=1 / cqm=0 / deadzone=6,6 / fast_pskip=1 / chroma_qp_offset=-4 / threads=12 / lookahead_threads=2 / sliced_threads=0 / nr=0 / decimate=0 / interlaced=0 / bluray_compat=0 / constrained_intra=0 / bframes=3 / b_pyramid=2 / b_adapt=2 / b_bias=0 / direct=3 / weightb=1 / open_gop=0 / weightp=2 / keyint=600 / keyint_min=59 / scenecut=40 / intra_refresh=0 / rc_lookahead=50 / rc=2pass / mbtree=1 / bitrate=20000 / ratetol=1.0 / qcomp=0.80 / qpmin=0 / qpmax=69 / qpstep=4 / cplxblur=20.0 / qblur=0.5 / vbv_maxrate=62500 / vbv_bufsize=78125 / nal_hrd=none / filler=0 / ip_ratio=1.10 / aq=1:0.50
    Default : Да
    Forced : Нет
    Аудио
    Идентификатор : 2
    Формат : AC-3
    Формат/Информация : Audio Coding 3
    Расширение режима : CM (complete main)
    Параметр Endianness формата : Big
    Идентификатор кодека : A_AC3
    Продолжительность : 2 ч. 28 м.
    Вид битрейта : Постоянный
    Битрейт : 192 Кбит/сек
    Каналы : 2 канала
    Расположение каналов : Front: L R
    Частота : 48,0 КГц
    Битовая глубина : 16 бит
    Метод сжатия : С потерями
    Размер потока : 205 Мбайт (1%)
    Заголовок : Любительский одноголсый - Radamant
    Default : Да
    Forced : Нет

    Release was prepared by 60-fps.org

  2. Longevity:
    4 years 6 months
    Posts:
    1575
    Gender:
    Male
    Чо за чухонь,а не фильм,они бы ещё вставели:"КТО НЕ СКАЧЕТ-ТОТ МОСКАЛЬ..."
    Могли бы сразу Гитлера освободителем сделать... ,бараны,а не сценористыдокументолисты сраные. Злой
    15-Apr-2017 00:38 (after 4 days)


You cannot post new topics in this forum
You cannot reply to topics in this forum
You cannot edit your posts in this forum
You cannot delete your posts in this forum
You cannot vote in polls in this forum
You cannot attach files in this forum
You cannot download files in this forum