[Цитировать]
mimok

Волки / Wolves (2013) BDRip 720p | 60fps | Open Matte«Unleash the beast»- Информация о фильме
Название: Волки
Оригинальное название: Wolves
Год выхода: 2013
Жанр: Фэнтези, боевик, ужасы
Режиссер: Дэвид Хэйтер
В ролях: Джейсон Момоа, Лукас Тилл, Джон Пайпер-Фергюсон, Мерритт Паттерсон, Стивен МакХэтти, Дженнифер Хейл, Адам Батчер Кейтлин Вонг, Мириам МакДональд, Ален Мусси
Описание фильма:
Кайдену Ричардсу 18 лет. Он — капитан студенческой футбольной команды, который встречается с самой завидной девушкой округа. Но однажды проснувшись ночью, он видит, что его родители зверски убиты. Кайден понимает, что это его рук дело — он превратился в дикого волка. В панике Кайден бежит из города и находит убежище в небольшом городке Волчий Хребет, который окутан еще более страшными тайнами.
Страна: Канада, Франция
Студия: TF1 International, Copper Heart Entertainment
Продолжительность: 01:30:57
Перевод: Профессиональный (Дублированный)
Субтитры: Отсутствуют

Дата мировой премьеры: 4 августа 2014
Дата российской премьеры: 28 августа 2014, «Top Film Distribution»
Дата выхода DVD релиза: 18 ноября 2014, «Lizard Cinema Trade»
Файл
Формат: MKV
Кодек: MPEG-4 AVC/H.264
Качество: BDRip 720p
Видео: ~ 7030 Кбит/сек, 1280 x 720, 59.940 кадров/сек
Аудио: AC3 5.1, 48.0 KHz, 448 Кбит/сек - Русский

MediaInfo

Общее
Уникальный идентификатор : 239967704539351102479293752107596670709 (0xB488194A070C679B8DF455EB682E66F5)
Полное имя : D:\Торренты\Wolves 60fps.mkv
Формат : Matroska
Версия формата : Version 2
Размер файла : 4,85 Гбайт
Продолжительность : 1 ч. 30 м.
Общий поток : 7629 Кбит/сек
Название фильма : Wolves [Theatrical Cut] (2014) Blu-ray Disc -BLUEBIRD
Дата кодирования : UTC 2015-01-29 17:55:46
Программа кодирования : mkvmerge v6.9.1 ('Blue Panther') 64bit built on Apr 18 2014 18:23:38
Библиотека кодирования : libebml v1.3.0 + libmatroska v1.4.1
Видео
Идентификатор : 1
Формат : AVC
Формат/Информация : Advanced Video Codec
Профиль формата : High@L4.1
Параметр CABAC формата : Да
Параметр ReFrames формата : 6 кадров
Идентификатор кодека : V_MPEG4/ISO/AVC
Продолжительность : 1 ч. 30 м.
Битрейт : 7030 Кбит/сек
Ширина : 1280 пикселей
Высота : 720 пикселей
Соотношение сторон : 16:9
Режим частоты кадров : Постоянный
Частота кадров : 59,880 кадров/сек
Частота кадров в оригинале : 59,940 кадров/сек
Цветовое пространство : YUV
Субдискретизация насыщенности : 4:2:0
Битовая глубина : 8 бит
Тип развёртки : Прогрессивная
Бит/(Пиксели*Кадры) : 0.127
Размер потока : 4,47 Гбайт (92%)
Заголовок : Release by mimok
Библиотека кодирования : x264 core 130 r2273 b3065e6
Настройки программы : cabac=1 / ref=6 / deblock=1:0:0 / analyse=0x3:0x133 / me=umh / subme=8 / psy=1 / psy_rd=1.00:0.15 / mixed_ref=1 / me_range=20 / chroma_me=1 / trellis=2 / 8x8dct=1 / cqm=0 / deadzone=21,11 / fast_pskip=0 / chroma_qp_offset=-3 / threads=6 / lookahead_threads=2 / sliced_threads=0 / nr=0 / decimate=0 / interlaced=0 / bluray_compat=0 / constrained_intra=0 / bframes=8 / b_pyramid=2 / b_adapt=2 / b_bias=0 / direct=1 / weightb=1 / open_gop=0 / weightp=2 / keyint=250 / keyint_min=25 / scenecut=40 / intra_refresh=0 / rc=crf / mbtree=0 / crf=18.5 / qcomp=0.63 / qpmin=10 / qpmax=51 / qpstep=4 / ip_ratio=1.40 / pb_ratio=1.30 / aq=1:1.20
Default : Да
Forced : Нет
Аудио
Идентификатор : 2
Формат : AC-3
Формат/Информация : Audio Coding 3
Расширение режима : CM (complete main)
Параметр Endianness формата : Big
Идентификатор кодека : A_AC3
Продолжительность : 1 ч. 30 м.
Вид битрейта : Постоянный
Битрейт : 448 Кбит/сек
Каналы : 6 каналов
Расположение каналов : Front: L C R, Side: L R, LFE
Частота : 48,0 КГц
Битовая глубина : 16 бит
Метод сжатия : С потерями
Размер потока : 291 Мбайт (6%)
Заголовок : Dub
Язык : Russian
Default : Да
Forced : Нет

Скринлист

Скриншоты:

Релиз подготовлен 60 - fps



Последний раз редактировалось: mimok (2015-01-31 10:41), всего редактировалось 1 раз

[Цитировать]
ZHz

какой невероятный рейтинг у фильма

[Цитировать]
VinceRage

посмотрел на рейтинг и подумал, зачем люди тратят время на создание 60fps этого фильма.

[Цитировать]
Лилия

Качну только из-за Кхала Дрого... :aj:
 
Показать сообщения:    

Текущее время: 08-Дек 19:04

Часовой пояс: UTC + 3


Вы не можете начинать темы
Вы не можете отвечать на сообщения
Вы не можете редактировать свои сообщения
Вы не можете удалять свои сообщения
Вы не можете голосовать в опросах
Вы не можете прикреплять файлы к сообщениям
Вы не можете скачивать файлы