Агент Ева / Ava (2020) BDRip 1080p | 60 fps Властелин колец: Трилогия / The Lord of the Rings: Trilogy (2001-2003) BDRip-AVC | Extended Cut | 60 fps Пятый элемент / The Fifth Element (1997) BDRip 1080p | 60 fps Форпост / The Outpost (2020) BDRip 1080p | 60 fps Охота / The Hunt (2020) BDRip 1080p | 60 fps Поезд смерти / D-Railed (2018) BDRip 1080p | 60 fps Вивариум / Vivarium (2019) BDRip 720p | 60 fps Ультрафиолет / Ultraviolet (2006) BDRip 1080p | 60 fps
  1. bot

    Longevity:
    6 years 4 months
    Posts:
    410
    Gender:
    Unknown
    «Приключение продолжается»- Информация
    Название: Властелин колец: Две крепости
    Оригинальное название: The Lord of the Rings: The Two Towers
    Год выхода: 2002
    Жанр: фэнтези, драма, приключения
    Режиссер: Питер Джексон
    Сценарий: Фрэнсис Уолш, Филиппа Бойенс, Стивен Синклер
    Продюсер: Питер Джексон, Барри М. Осборн, Фрэнсис Уолш
    В ролях: Элайджа Вуд, Вигго Мортенсен, Шон Эстин, Орландо Блум, Хьюго Уивинг, Лив Тайлер, Карл Урбан, Иэн МакКеллен, Брюс Олпресс, Миранда Отто
    --Сюжет:
    Братство распалось, но Кольцо Всевластья должно быть уничтожено. Фродо и Сэм вынуждены доверить свои жизни Голлуму, который взялся провести их к вратам Мордора. Громадная Армия Сарумана приближается: члены братства и их союзники готовы принять бой. Битва за Средиземье продолжается.- Страна: США, Новая Зеландия
    Продолжительность: 02:59:25

    Файл
    Кодек: MPEG4/ISO/AVC/H.264
    Формат: MKV
    Качество: BDRip 720p | 60 fps
    Видео: 1280x532 | 59.940 fps | 4.5 Мбит/сек
    Аудио 1: AC3 | 5.1 | 48 kHz | 448 kbps | 16 bit | Дубляж |
    Аудио 2: AC3 | 5.1 | 48 kHz | 448 kbps | 16 bit | English |
    Субтитры: Русские, Eng

    MedifInfo

    Video
    ID : 1
    Format : AVC
    Format/Info : Advanced Video Codec
    Format profile : [email protected]
    Format settings, CABAC : Yes
    Format settings, ReFrames : 9 frames
    Codec ID : V_MPEG4/ISO/AVC
    Duration : 2 h 59 min
    Bit rate : 4 585 kb/s
    Width : 1 280 pixels
    Height : 532 pixels
    Display aspect ratio : 2.40:1
    Frame rate mode : Constant
    Frame rate : 59.940 (60000/1001) FPS
    Color space : YUV
    Chroma subsampling : 4:2:0
    Bit depth : 8 bits
    Scan type : Progressive
    Bits/(Pixel*Frame) : 0.112
    Stream size : 5.75 GiB (82%)
    Writing library : x264 core 146 r2538 121396c
    Encoding settings : cabac=1 / ref=9 / deblock=1:0:0 / analyse=0x3:0x113 / me=umh / subme=10 / psy=1 / psy_rd=1.00:0.00 / mixed_ref=1 / me_range=24 / chroma_me=1 / trellis=2 / 8x8dct=1 / cqm=0 / deadzone=21,11 / fast_pskip=0 / chroma_qp_offset=-2 / threads=12 / lookahead_threads=1 / sliced_threads=0 / nr=0 / decimate=1 / interlaced=0 / bluray_compat=0 / constrained_intra=0 / bframes=5 / b_pyramid=2 / b_adapt=2 / b_bias=0 / direct=3 / weightb=1 / open_gop=0 / weightp=2 / keyint=250 / keyint_min=25 / scenecut=40 / intra_refresh=0 / rc_lookahead=40 / rc=crf / mbtree=0 / crf=17.7 / qcomp=0.60 / qpmin=0 / qpmax=69 / qpstep=4 / vbv_maxrate=14000 / vbv_bufsize=14000 / crf_max=0.0 / nal_hrd=none / filler=0 / ip_ratio=1.40 / pb_ratio=1.30 / aq=3:1.00
    Language : English
    Default : Yes
    Forced : No
    Audio #1
    ID : 2
    Format : AC-3
    Format/Info : Audio Coding 3
    Mode extension : CM (complete main)
    Format settings, Endianness : Big
    Codec ID : A_AC3
    Duration : 2 h 59 min
    Bit rate mode : Constant
    Bit rate : 448 kb/s
    Channel(s) : 6 channels
    Channel positions : Front: L C R, Side: L R, LFE
    Sampling rate : 48.0 kHz
    Frame rate : 31.250 FPS (1536 spf)
    Compression mode : Lossy
    Stream size : 575 MiB (8%)
    Title : Dub
    Language : Russian
    Default : Yes
    Forced : No
    Audio #2
    ID : 3
    Format : AC-3
    Format/Info : Audio Coding 3
    Mode extension : CM (complete main)
    Format settings, Endianness : Big
    Codec ID : A_AC3
    Duration : 2 h 59 min
    Bit rate mode : Constant
    Bit rate : 448 kb/s
    Channel(s) : 6 channels
    Channel positions : Front: L C R, Side: L R, LFE
    Sampling rate : 48.0 kHz
    Frame rate : 31.250 FPS (1536 spf)
    Compression mode : Lossy
    Stream size : 575 MiB (8%)
    Title : Eng
    Language : English
    Default : No
    Forced : No
    Text #1
    ID : 4
    Format : UTF-8
    Codec ID : S_TEXT/UTF8
    Codec ID/Info : UTF-8 Plain Text
    Title : Rus full
    Language : Russian
    Default : No
    Forced : No
    Text #2
    ID : 5
    Format : UTF-8
    Codec ID : S_TEXT/UTF8
    Codec ID/Info : UTF-8 Plain Text
    Title : Eng full
    Language : English
    Default : No
    Forced : No
    Menu
    00:00:00.000 : :The Foundations of Stone
    00:04:08.748 : :The Taming of Smeagol
    00:11:32.150 : :The Uruk-hai
    00:12:17.695 : :The Three Hunters
    00:14:27.200 : :The Burning of the Westfold
    00:17:30.549 : :The Banishment of Eomer
    00:20:18.592 : :On the Trail of the Uruk-hai
    00:21:12.730 : :Night Camp at Fangorn
    00:24:11.075 : :The Riders of Rohan
    00:28:19.031 : :Traces of Merry and Pippin
    00:30:50.766 : :Treebeard
    00:34:19.683 : :The Passage of the Marshes
    00:41:18.601 : :The White Rider
    00:46:55.271 : :Fangorn Forest
    00:47:35.436 : :The Black Gate is Closed
    00:52:53.128 : :The King of the Golden Hall
    01:04:21.649 : :Simbelmyne on the Burial Mounds
    01:06:14.429 : :The King's Decision
    01:09:25.203 : :A Daughter of Kings
    01:10:51.247 : :Exodus From Edoras
    01:11:55.853 : :The Forests of Ithilien
    01:13:38.497 : :Gollum and Smeagol
    01:16:08.981 : :Of Herbs and Stewed Rabbit
    01:20:35.998 : :Dwarf Women
    01:21:32.387 : :The Evenstar
    01:26:01.406 : :The Wolves of Isengard
    01:32:39.304 : :Helm's Deep
    01:35:05.909 : :Isengard Unleashed
    01:37:42.398 : :The Grace of the Valar
    01:39:22.039 : :Arwen's Fate
    01:43:02.718 : :The Story Foreseen From Lorien
    01:45:28.697 : :The Window on the West
    01:48:24.415 : :The Forbidden Pool
    01:55:44.813 : :Aragorn's Return
    02:01:18.062 : :Entmoot
    02:02:37.934 : :The Glittering Caves
    02:04:36.177 : :"Where Is the Horse and the Rider?"
    02:06:20.907 : :The Host of the Eldar
    02:09:53.327 : :The Battle of the Hornburg
    02:16:09.286 : :Old Entish
    02:17:48.635 : :The Breach of the Deeping Wall
    02:21:13.465 : :The Entmoor Decides
    02:22:58.612 : :Retreat to the Hornburg
    02:28:55.552 : :Master Peregrin's Plan
    02:30:20.345 : :Osgiliath
    02:30:55.088 : :The Last March of the Ents
    02:33:11.307 : :The Nazgul Attack
    02:35:43.292 : :Forth Eorlingas
    02:40:21.779 : :The Flooding of Isengard
    02:42:49.969 : :The Tale That Really Mattered...
    02:47:36.255 : :"The Battle for Middle-Earth Is About to Begin"
    02:49:15.937 : :Gollum's Plan
    02:51:42.459 : :End Credits
  2. Longevity:
    4 years 5 months
    Posts:
    10
    Gender:
    Unknown
    Please do Doctor Strange web-dl is out in 2 days.... Поцелуй


You cannot post new topics in this forum
You cannot reply to topics in this forum
You cannot edit your posts in this forum
You cannot delete your posts in this forum
You cannot vote in polls in this forum
You cannot attach files in this forum
You cannot download files in this forum