[Цитировать]
Гость

-Название: Власть огня
Оригинальное название: Reign of Fire
Год выпуска: 2002
Страна: Великобритания, Ирландия, США
Жанр: фантастика, фэнтези, боевик, триллер, приключения
Продолжительность: 01:42:23
Перевод: Дубляж
Субтитры: русские (Полные), английские (Полные)-Режиссер: Роб Боумен / Rob Bowman-В ролях: Кристиан Бэйл (Quinn Abercromby), Мэттью МакКонахи (Denton Van Zan), Изабелла Скорупко (Alex Jensen), Джерард Батлер (Creedy), Скотт Моттер (Jared Wilke), Дэвид Кеннеди (Eddie Stax), Александр Сиддиг (Ajay), Нед Деннехи (Barlow), Рори Кинэн (Devon), Теренс Мэйнард (Gideon), Даг Кокл (Goosh), Рэндолл Карлтон (Burke (Tito))-Описание:
2020 год. Планета во власти жестоких огнедышащих драконов, восставших из небытия из-за нелепой оплошности людей. Немногие обитатели сожжённого дотла Лондона, среди которых - бесстрашный воин Куинн, ютятся под землёй, тщетно противостоя всё увеличивающимся ордам голодных и мстительных тварей. И лишь появление охотников на драконов под предводительством отважного Ван Зана вселяет в них надежду. Вскоре они узнают о единственном самце, продолжателе всего драконьего рода, и теперь только от Ван Зана и Куинна зависит, смогут ли они победить чудовище, чтобы спасти человечество от полного вымирания.-Рейтинг
kinopoisk.ru: 6.845 (16 959)
imdb.com: 6.20 (94 642)
MPAA: PG-13 - Детям до 13 лет просмотр не желателен-Автор рипа:Tiberiumsun69
-Качество: BDRip 1080p / 60 FPS
Формат: MKV
Видео кодек: AVC
Аудио кодек:AC3
Видео: AVC, 1920x816 (2.35:1), 14000 kbps, 59,940 fps, 0,149 bpp
Аудио №1: русский / AC3 / 5.1 / 48 kHz / 640 kbps / 16 bit |Дубляж|
Аудио №2: английский / AC3 / 5.1 / 48 kHz / 640 kbps / 16 bit
Навигация по главам: есть- -

MI

General
Unique ID : 239630101390058155783845645138755491423 (0xB447142B36546F0EAF368EA7E54A965F)
Complete name : A:\1080p 60fps\Власть огня 1080p 60fps.mkv
Format : Matroska
Format version : Version 4 / Version 2
File size : 10.9 GiB
Duration : 1h 42mn
Overall bit rate : 15.3 Mbps
Movie name : R.G. HD-Films by Tiberiumsun69 60fps
Encoded date : UTC 2014-12-15 07:00:10
Writing application : mkvmerge v7.4.0 ('Circles') 64bit built on Dec 12 2014 12:19:56
Writing library : libebml v1.3.0 + libmatroska v1.4.1
Attachment : Yes
Video
ID : 1
Format : AVC
Format/Info : Advanced Video Codec
Format profile : High@L4.1
Format settings, CABAC : Yes
Format settings, ReFrames : 4 frames
Codec ID : V_MPEG4/ISO/AVC
Duration : 1h 42mn
Bit rate : 14.0 Mbps
Width : 1 920 pixels
Height : 816 pixels
Display aspect ratio : 2.35:1
Frame rate : 59.940 fps
Color space : YUV
Chroma subsampling : 4:2:0
Bit depth : 8 bits
Scan type : Progressive
Bits/(Pixel*Frame) : 0.149
Stream size : 9.79 GiB (90%)
Title : R.G. HD-Films by Tiberiumsun69 60fps
Writing library : x264 core 142 r2491 24e4fed
Encoding settings : cabac=1 / ref=4 / deblock=1:-1:-1 / analyse=0x3:0 / me=umh / subme=10 / psy=1 / psy_rd=1.00:0.00 / mixed_ref=1 / me_range=32 / chroma_me=0 / trellis=2 / 8x8dct=1 / cqm=0 / deadzone=21,11 / fast_pskip=1 / chroma_qp_offset=-2 / threads=12 / lookahead_threads=1 / sliced_threads=0 / nr=0 / decimate=1 / interlaced=0 / bluray_compat=0 / constrained_intra=0 / bframes=5 / b_pyramid=2 / b_adapt=2 / b_bias=0 / direct=3 / weightb=1 / open_gop=0 / weightp=2 / keyint=250 / keyint_min=59 / scenecut=40 / intra_refresh=0 / rc=2pass / mbtree=0 / bitrate=14000 / ratetol=1.0 / qcomp=0.80 / qpmin=0 / qpmax=69 / qpstep=4 / cplxblur=20.0 / qblur=0.5 / ip_ratio=1.40 / pb_ratio=1.30 / aq=1:1.00
Language : English
Default : Yes
Forced : No
Audio #1
ID : 2
Format : AC-3
Format/Info : Audio Coding 3
Mode extension : CM (complete main)
Codec ID : A_AC3
Duration : 1h 42mn
Bit rate mode : Constant
Bit rate : 640 Kbps
Channel(s) : 6 channels
Channel positions : Front: L C R, Side: L R, LFE
Sampling rate : 48.0 KHz
Bit depth : 16 bits
Compression mode : Lossy
Stream size : 469 MiB (4%)
Title : Дубляж
Language : Russian
Default : Yes
Forced : No
Audio #2
ID : 3
Format : AC-3
Format/Info : Audio Coding 3
Mode extension : CM (complete main)
Codec ID : A_AC3
Duration : 1h 42mn
Bit rate mode : Constant
Bit rate : 640 Kbps
Channel(s) : 6 channels
Channel positions : Front: L C R, Side: L R, LFE
Sampling rate : 48.0 KHz
Bit depth : 16 bits
Compression mode : Lossy
Stream size : 469 MiB (4%)
Title : Оригинал
Language : English
Default : No
Forced : No
Text #1
ID : 4
Format : UTF-8
Codec ID : S_TEXT/UTF8
Codec ID/Info : UTF-8 Plain Text
Title : Полные
Language : Russian
Default : No
Forced : No
Text #2
ID : 5
Format : UTF-8
Codec ID : S_TEXT/UTF8
Codec ID/Info : UTF-8 Plain Text
Title : Полные
Language : English
Default : No
Forced : No
Menu
00:00:00.000 : 1
00:10:47.834 : 2
00:20:03.867 : 3
00:25:43.668 : 4
00:39:50.369 : 5
00:51:07.369 : 6
01:02:11.536 : 7
01:10:30.037 : 8
01:20:13.738 : 9
01:30:01.706 : 10
01:35:16.073 : 11

Скриншоты

Просьба к переливающим на другие сайты, в оформлении указывайте пожалуйста авторство рипа - Tiberiumsun69

[Цитировать]
izomsk

Хоббит: Начало. Битва Трёх Воинств

[Цитировать]
Андрей 60

Спасибо за прекрасный фильм! Очень давно его не смотрел. Подарок старикашке!
 
Показать сообщения:    

Текущее время: 07-Дек 19:24

Часовой пояс: UTC + 3


Вы не можете начинать темы
Вы не можете отвечать на сообщения
Вы не можете редактировать свои сообщения
Вы не можете удалять свои сообщения
Вы не можете голосовать в опросах
Вы не можете прикреплять файлы к сообщениям
Вы не можете скачивать файлы