Топ Топиков за 24 часа
 
Джентльмены удачи (1971) BDRip-AVC | 60 fps Брат 2 (2000 г.) DVDRip | 60 fps Притяжение (2017) BDRip 1080p | 60 fps Операция «Ы» и другие приключения Шурика (1965) BDRip-AVC | 60 fps Собачье сердце (1988) HD 720p | 60 fps 28 панфиловцев (2016) BDRip 1080p | 60 fps Кавказская пленница, или Новые приключения Шурика (1966) BDRip-AVC | 60 fps Иван Васильевич меняет профессию (1973) BDRip-AVC | 60 fps Кин-дза-дза! (1986) BDRip 1080p | 60 fps Брат (1997) HDDVDRip 720p | 60fps Жмурки (2005) BDRip 720p | 60 fps Гагарин. Первый в космосе (2013) BDRip 1080p | 60 fps
  1. Стаж:
    3 года 2 месяца
    Сообщений:
    2116
    Пол:
    Мужской
     
    Вий (1967) BDRip 720p | JPN Transfer | 60 fps- Информация
    Название: Вий
    Год выхода: 1967
    Жанр: Ужасы, фэнтези, драма
    Режиссер: Георгий Кропачев, Константин Ершов
    Cценарий: Георгий Кропачев, Александр Птушко, Константин Ершов
    Директор фильма: Виталий Кривонощенко
    В ролях: Леонид Куравлёв, Наталья Варлей, Алексей Глазырин, Николай Кутузов, Вадим Захарченко, Пётр Вескляров, Владимир Сальников, Дмитрий Капка, Степан Шкурат, Георгий Сочевко, Николай Яковченко, Николай Панасьев, Маргарита Криницына, Борислав Брондуков, Николай Степанов, Александр Лебедев, Михаил Крамар, Дмитрий Орловский, Анна Павлова, Борис Веселов, Любовь Калюжная, Виктор Колпаков, Александра Денисова
    --Сюжет:
    Студент-философ Хома Брут должен провести несколько ночей у гроба умершей панночки в старой церквушке в далекой деревне. Сможет ли он побороть свой страх, или ему придется столкнуться с нечистой силой?..- Страна: СССР
    Продолжительность: 01:16:23

    Файл
    Кодек: MPEG4/ISO/AVC H.264
    Формат: MKV
    Качество: BDRip 720p | JPN Transfer | 60 fps
    Видео: 972 x 720 (1.350) | 59.940 fps | 8.0 Мбит/сек
    Аудио: AC3 | 5.1 | 48 kHz | 640 kbps | 16 bit

    MedifInfo

    Видео
    Идентификатор : 1
    Формат : AVC
    Формат/Информация : Advanced Video Codec
    Профиль формата : High@L4.1
    Параметр CABAC формата : Да
    Параметр ReFrames формата : 3 кадра
    Параметр GOP формата : M=3, N=72
    Идентификатор кодека : V_MPEG4/ISO/AVC
    Продолжительность : 1 ч. 16 м.
    Вид битрейта : Переменный
    Битрейт : 7813 Кбит/сек
    Максимальный битрейт : 8000 Кбит/сек
    Ширина : 972 пикселя
    Высота : 720 пикселей
    Соотношение сторон : 4:3
    Режим частоты кадров : Постоянный
    Частота кадров : 59,880 кадров/сек
    Частота кадров в оригинале : 59,940 кадров/сек
    Стандарт вещания : PAL
    Цветовое пространство : YUV
    Субдискретизация насыщенности : 4:2:0
    Битовая глубина : 8 бит
    Тип развёртки : Прогрессивная
    Бит/(Пиксели*Кадры) : 0.186
    Размер потока : 4,17 Гбайт (91%)
    Заголовок : www.60-fps.org
    Язык : English
    Default : Да
    Forced : Нет
    Основные цвета : BT.709
    Характеристики трансфера : BT.709
    Коэффициенты матрицы : BT.709
    colour_range : Limited
    Аудио
    Идентификатор : 2
    Формат : AC-3
    Формат/Информация : Audio Coding 3
    Расширение режима : CM (complete main)
    Параметр Endianness формата : Big
    Идентификатор кодека : A_AC3
    Продолжительность : 1 ч. 16 м.
    Вид битрейта : Постоянный
    Битрейт : 640 Кбит/сек
    Каналы : 2 канала
    Расположение каналов : Front: L R
    Частота : 48,0 КГц
    Битовая глубина : 16 бит
    Метод сжатия : С потерями
    Размер потока : 350 Мбайт (7%)
    Default : Да
    Forced : Нет

    Релиз подготовлен 60 - fps

  2. Стаж:
    3 года 2 месяца
    Сообщений:
    15
    Пол:
    Мужской
     
    Спасибо .
    06-Сен-2016 00:23 (спустя 4 минуты)
  3. Стаж:
    2 месяца 2 дня
    Сообщений:
    1
    Пол:
    Не указан
     
    Спасибо большое за качество!!!
    10-Окт-2017 01:21 (спустя 1 год 1 месяц)


Вы не можете начинать темы
Вы не можете отвечать на сообщения
Вы не можете редактировать свои сообщения
Вы не можете удалять свои сообщения
Вы не можете голосовать в опросах
Вы не можете прикреплять файлы к сообщениям
Вы не можете скачивать файлы