[Цитировать]
Kryl

«Монстр создал монстра»- Информация
Название: Виктор Франкенштейн
Оригинальное название: Victor Frankenstein
Год выхода: 2015
Жанр: Ужасы, Фантастика, Драма
Режиссер: Пол МакГиган
Сценарий: Макс Лэндис, Мэри Шелли
Продюсер: Джон Дэвис, Маири Бетт, Дерек Дочи
В ролях: Дэниэл Рэдклифф, Джеймс МакЭвой, Джессика Браун-Финдли, Бронсон Уэбб, Дэниэл Мейс, Спенсер Уидлинг, Робин Пирс, Эндрю Скотт, Каллум Тернер, Ди Ботчер
--Сюжет:
Новый взгляд на фантастическую историю Виктора Франкенштейна, на этот раз — с точки зрения его помощника Игоря.
- Страна: США
Продолжительность: 01:50:24

Файл
Кодек: MPEG4/ISO/AVC H.264
Формат: MKV
Качество: WEBRip 720p | 60 fps
Видео: 1280 x 530 (2.415) at | 59.940 fps | 6.0 Мбит/сек
Аудио 1: AC3 | 5.1 | 48 kHz | 384 kbps | 16 bit | Дубляж (iTunes) |
Аудио 2: AC3 | 2.0 | 48 kHz | 192 kbps | 16 bit | Украинский |
Аудио 3: AC3 | 2.0 | 48 kHz | 192 kbps | 16 bit | Eng |
Субтитры: English

MedifInfo

Видео
Идентификатор : 1
Формат : AVC
Формат/Информация : Advanced Video Codec
Профиль формата : High@L4.1
Параметр CABAC формата : Да
Параметр ReFrames формата : 3 кадра
Идентификатор кодека : V_MPEG4/ISO/AVC
Продолжительность : 1 ч. 50 м.
Вид битрейта : Переменный
Битрейт : 5818 Кбит/сек
Максимальный битрейт : 6000 Кбит/сек
Ширина : 1280 пикселей
Высота : 530 пикселей
Соотношение сторон : 2,40:1
Режим частоты кадров : Постоянный
Частота кадров : 59,880 кадров/сек
Частота кадров в оригинале : 59,940 кадров/сек
Стандарт вещания : PAL
Цветовое пространство : YUV
Субдискретизация насыщенности : 4:2:0
Битовая глубина : 8 бит
Тип развёртки : Прогрессивная
Бит/(Пиксели*Кадры) : 0.143
Размер потока : 4,49 Гбайт (87%)
Заголовок : www.60-fps.org
Язык : English
Default : Да
Forced : Нет
Основные цвета : BT.601 NTSC
Характеристики трансфера : BT.601
Коэффициенты матрицы : BT.601
colour_range : Limited
Аудио #1
Идентификатор : 2
Формат : AC-3
Формат/Информация : Audio Coding 3
Расширение режима : CM (complete main)
Параметр Endianness формата : Big
Идентификатор кодека : A_AC3
Продолжительность : 1 ч. 50 м.
Вид битрейта : Постоянный
Битрейт : 384 Кбит/сек
Каналы : 6 каналов
Расположение каналов : Front: L C R, Side: L R, LFE
Частота : 48,0 КГц
Битовая глубина : 16 бит
Метод сжатия : С потерями
Размер потока : 303 Мбайт (6%)
Заголовок : iTunes
Язык : Russian
Default : Да
Forced : Нет
Аудио #2
Идентификатор : 3
Формат : AC-3
Формат/Информация : Audio Coding 3
Расширение режима : CM (complete main)
Параметр Endianness формата : Big
Идентификатор кодека : A_AC3
Продолжительность : 1 ч. 50 м.
Вид битрейта : Постоянный
Битрейт : 192 Кбит/сек
Каналы : 2 канала
Расположение каналов : Front: L R
Частота : 48,0 КГц
Битовая глубина : 16 бит
Метод сжатия : С потерями
Размер потока : 152 Мбайт (3%)
Заголовок : iTunes
Язык : Ukrainian
Default : Нет
Forced : Нет
Аудио #3
Идентификатор : 4
Формат : AC-3
Формат/Информация : Audio Coding 3
Расширение режима : CM (complete main)
Параметр Endianness формата : Big
Идентификатор кодека : A_AC3
Продолжительность : 1 ч. 50 м.
Вид битрейта : Постоянный
Битрейт : 192 Кбит/сек
Каналы : 2 канала
Расположение каналов : Front: L R
Частота : 48,0 КГц
Битовая глубина : 16 бит
Метод сжатия : С потерями
Размер потока : 152 Мбайт (3%)
Заголовок : Original
Язык : English
Default : Нет
Forced : Нет
Текст
Идентификатор : 5
Формат : UTF-8
Идентификатор кодека : S_TEXT/UTF8
Идентификатор кодека/Информация : UTF-8 Plain Text
Заголовок : Full
Язык : English
Default : Нет
Forced : Нет
Меню
00:00:00.000 : en:1
00:04:06.000 : en:2
00:08:05.000 : en:3
00:11:13.000 : en:4
00:15:18.000 : en:5
00:18:56.000 : en:6
00:22:24.000 : en:7
00:26:04.000 : en:8
00:28:56.000 : en:9
00:31:59.000 : en:10
00:35:58.000 : en:11
00:41:07.000 : en:12
00:46:13.000 : en:13
00:51:44.000 : en:14
00:56:38.000 : en:15
00:59:50.000 : en:16
01:02:32.000 : en:17
01:06:52.000 : en:18
01:11:19.000 : en:19
01:15:08.000 : en:20
01:18:04.000 : en:21
01:21:00.000 : en:22
01:25:14.000 : en:23
01:28:11.000 : en:24
01:33:28.000 : en:25
01:37:44.000 : en:26
01:41:25.000 : en:27
01:43:27.000 : en:28

Релиз подготовлен 60 - fps



Последний раз редактировалось: Kryl (2016-02-25 06:28), всего редактировалось 1 раз

[Цитировать]
ENIGMA

Спасибо Большое Улыбаюсь

[Цитировать]
Альберт

Спасибо Подмигиваю от души
 
Показать сообщения:    

Текущее время: 09-Дек 22:22

Часовой пояс: UTC + 3


Вы не можете начинать темы
Вы не можете отвечать на сообщения
Вы не можете редактировать свои сообщения
Вы не можете удалять свои сообщения
Вы не можете голосовать в опросах
Вы не можете прикреплять файлы к сообщениям
Вы не можете скачивать файлы