[Цитировать]
Kryl

«Пришло время узнать правду...»- Информация
Название: Видок
Оригинальное название: Vidocq
Год выхода: 2001
Жанр: Триллер, детектив, мистика
Режиссер: Питоф
Сценарий: Эжен-Франсуа Видок, Питоф, Жан-Кристоф Гранже
Продюсер: Доминик Фарруджия, Оливье Гранье
В ролях: Жерар Депардье, Гийом Кане, Инес Састр, Андре Дюссолье, Эдит Скоб, Мусса Мааскри, Жан-Пьер Гос, Изабель Рено
--Сюжет:
Париж ХIХ века охвачен паникой. В его «чреве» завелся серийный убийца, которого может вычислить только гениальный сыщик Видок. Реальный исторический персонаж, не знающий удержу ни в своих перевоплощениях, ни в дьявольской интуиции. Он мчится по следу загадочного Алхимика.- Страна: Франция
Продолжительность: 01:37:38

Файл
Кодек: MPEG4/ISO/AVC H.264
Формат: MKV
Качество: BDRip 720p | 60 fps
Видео: 1280 x 694 (1.844) | 60.000 fps | 11.0 Мбит/сек
Аудио 1: AC3 | 5.1 | 48 kHz | 448 kbps | 16 bit | Дубляж |
Аудио 2: AC3 | 5.1 | 48 kHz | 640 kbps | 16 bit | Французский |
Субтитры: Русские | Полные, Английские | Полные, Французские | Полные

MedifInfo

Видео
Идентификатор : 1
Формат : AVC
Формат/Информация : Advanced Video Codec
Профиль формата : High@L4.1
Параметр CABAC формата : Да
Параметр ReFrames формата : 3 кадра
Параметр GOP формата : M=3, N=72
Идентификатор кодека : V_MPEG4/ISO/AVC
Продолжительность : 1 ч. 37 м.
Вид битрейта : Переменный
Битрейт : 10,6 Мбит/сек
Максимальный битрейт : 11,0 Мбит/сек
Ширина : 1280 пикселей
Высота : 694 пикселя
Соотношение сторон : 1,85:1
Режим частоты кадров : Постоянный
Частота кадров : 60,000 кадров/сек
Стандарт вещания : PAL
Цветовое пространство : YUV
Субдискретизация насыщенности : 4:2:0
Битовая глубина : 8 бит
Тип развёртки : Прогрессивная
Бит/(Пиксели*Кадры) : 0.198
Размер потока : 7,21 Гбайт (89%)
Заголовок : www.60-fps.org
Язык : English
Default : Да
Forced : Нет
Основные цвета : BT.709
Характеристики трансфера : BT.709
Коэффициенты матрицы : BT.709
colour_range : Limited
Аудио #1
Идентификатор : 2
Формат : AC-3
Формат/Информация : Audio Coding 3
Расширение режима : CM (complete main)
Параметр Endianness формата : Big
Идентификатор кодека : A_AC3
Продолжительность : 1 ч. 37 м.
Вид битрейта : Постоянный
Битрейт : 448 Кбит/сек
Каналы : 6 каналов
Расположение каналов : Front: L C R, Side: L R, LFE
Частота : 48,0 КГц
Битовая глубина : 16 бит
Метод сжатия : С потерями
Размер потока : 313 Мбайт (4%)
Заголовок : Dub
Язык : Russian
Default : Да
Forced : Нет
Аудио #2
Идентификатор : 3
Формат : AC-3
Формат/Информация : Audio Coding 3
Расширение режима : CM (complete main)
Параметр Endianness формата : Big
Идентификатор кодека : A_AC3
Продолжительность : 1 ч. 37 м.
Вид битрейта : Постоянный
Битрейт : 640 Кбит/сек
Каналы : 6 каналов
Расположение каналов : Front: L C R, Side: L R, LFE
Частота : 48,0 КГц
Битовая глубина : 16 бит
Метод сжатия : С потерями
Размер потока : 447 Мбайт (5%)
Заголовок : Fre
Язык : French
Default : Нет
Forced : Нет
Текст #1
Идентификатор : 4
Формат : UTF-8
Идентификатор кодека : S_TEXT/UTF8
Идентификатор кодека/Информация : UTF-8 Plain Text
Заголовок : rus full
Язык : Russian
Default : Нет
Forced : Нет
Текст #2
Идентификатор : 5
Формат : UTF-8
Идентификатор кодека : S_TEXT/UTF8
Идентификатор кодека/Информация : UTF-8 Plain Text
Заголовок : eng full
Язык : English
Default : Нет
Forced : Нет
Текст #3
Идентификатор : 6
Формат : UTF-8
Идентификатор кодека : S_TEXT/UTF8
Идентификатор кодека/Информация : UTF-8 Plain Text
Заголовок : fre full
Язык : French
Default : Нет
Forced : Нет
Меню
00:00:00.000 : :Chapter 1
00:05:13.000 : :Chapter 2
00:06:45.332 : :Chapter 3
00:10:54.290 : :Chapter 4
00:14:21.833 : :Chapter 5
00:19:24.666 : :Chapter 6
00:24:00.000 : :Chapter 7
00:31:17.583 : :Chapter 8
00:36:58.750 : :Chapter 9
00:41:43.375 : :Chapter 10
00:47:14.333 : :Chapter 11
00:54:20.041 : :Chapter 12
01:02:17.000 : :Chapter 13
01:12:00.541 : :Chapter 14
01:20:25.582 : :Chapter 15
01:27:33.875 : :Chapter 16
01:32:11.041 : :Chapter 17
01:33:55.207 : :Chapter 18
01:37:30.000 : :Chapter 19

Релиз подготовлен 60 - fps



Последний раз редактировалось: Kryl (2016-04-01 23:11), всего редактировалось 1 раз

[Цитировать]
DIMMM52

Фильм шикарен Овации , но вес великоват Плачу
 
Показать сообщения:    

Текущее время: 02-Дек 21:10

Часовой пояс: UTC + 3


Вы не можете начинать темы
Вы не можете отвечать на сообщения
Вы не можете редактировать свои сообщения
Вы не можете удалять свои сообщения
Вы не можете голосовать в опросах
Вы не можете прикреплять файлы к сообщениям
Вы не можете скачивать файлы