«Пришло время узнать правду...»- Информация
Название: Видок
Оригинальное название: Vidocq
Год выхода: 2001
Жанр: Триллер, детектив, мистика
Режиссер: Питоф
Сценарий: Эжен-Франсуа Видок, Питоф, Жан-Кристоф Гранже
Продюсер: Доминик Фарруджия, Оливье Гранье
В ролях: Жерар Депардье, Гийом Кане, Инес Састр, Андре Дюссолье, Эдит Скоб, Мусса Мааскри, Жан-Пьер Гос, Изабель Рено
--Сюжет:
Париж ХIХ века охвачен паникой. В его «чреве» завелся серийный убийца, которого может вычислить только гениальный сыщик Видок. Реальный исторический персонаж, не знающий удержу ни в своих перевоплощениях, ни в дьявольской интуиции. Он мчится по следу загадочного Алхимика.- Страна: Франция
Продолжительность: 01:37:38

Файл
Кодек: MPEG4/ISO/AVC H.264
Формат: MKV
Качество: BDRip 1080p | 60 fps
Видео: 1920x1044 | 59.940 fps | 14.6 Мбит/сек
Аудио 1: AC3 | 5.1 | 48 kHz | 448 kbps | 16 bit | Дубляж |
Аудио 2: AC3 | 5.1 | 48 kHz | 640 kbps | 16 bit | Французский |
Субтитры: Русские | Полные, Английские | Полные, Французские | Полные

MedifInfo

Video
ID : 1
Format : AVC
Format/Info : Advanced Video Codec
Format profile : High@L4.1
Format settings, CABAC : Yes
Format settings, ReFrames : 4 frames
Codec ID : V_MPEG4/ISO/AVC
Duration : 1h 37mn
Bit rate : 14.6 Mbps
Width : 1 920 pixels
Height : 1 044 pixels
Display aspect ratio : 1.85:1
Frame rate mode : Constant
Frame rate : 59.880 fps
Original frame rate : 59.940 fps
Color space : YUV
Chroma subsampling : 4:2:0
Bit depth : 8 bits
Scan type : Progressive
Bits/(Pixel*Frame) : 0.122
Stream size : 9.73 GiB (91%)
Writing library : x264 core 140 r2377 1ca7bb9
Encoding settings : cabac=1 / ref=4 / deblock=1:-2:-2 / analyse=0x3:0x133 / me=umh / subme=11 / psy=1 / psy_rd=1.00:0.00 / mixed_ref=1 / me_range=32 / chroma_me=1 / trellis=2 / 8x8dct=1 / cqm=0 / deadzone=21,11 / fast_pskip=0 / chroma_qp_offset=-2 / threads=12 / lookahead_threads=1 / sliced_threads=0 / nr=0 / decimate=1 / interlaced=0 / bluray_compat=0 / constrained_intra=0 / bframes=5 / b_pyramid=2 / b_adapt=2 / b_bias=0 / direct=3 / weightb=1 / open_gop=0 / weightp=2 / keyint=250 / keyint_min=25 / scenecut=40 / intra_refresh=0 / rc=2pass / mbtree=0 / bitrate=14626 / ratetol=2.0 / qcomp=0.60 / qpmin=0 / qpmax=69 / qpstep=4 / cplxblur=20.0 / qblur=0.5 / ip_ratio=1.40 / pb_ratio=1.30 / aq=1:0.80
Language : English
Default : Yes
Forced : No
Audio #1
ID : 2
Format : AC-3
Format/Info : Audio Coding 3
Mode extension : CM (complete main)
Format settings, Endianness : Big
Codec ID : A_AC3
Duration : 1h 37mn
Bit rate mode : Constant
Bit rate : 448 Kbps
Channel count : 6 channels
Channel positions : Front: L C R, Side: L R, LFE
Sampling rate : 48.0 KHz
Bit depth : 16 bits
Compression mode : Lossy
Stream size : 313 MiB (3%)
Title : Dub
Language : Russian
Default : Yes
Forced : No
Audio #2
ID : 3
Format : AC-3
Format/Info : Audio Coding 3
Mode extension : CM (complete main)
Format settings, Endianness : Big
Codec ID : A_AC3
Duration : 1h 37mn
Bit rate mode : Constant
Bit rate : 640 Kbps
Channel count : 6 channels
Channel positions : Front: L C R, Side: L R, LFE
Sampling rate : 48.0 KHz
Bit depth : 16 bits
Compression mode : Lossy
Stream size : 447 MiB (4%)
Title : Fre
Language : French
Default : No
Forced : No
Text #1
ID : 4
Format : UTF-8
Codec ID : S_TEXT/UTF8
Codec ID/Info : UTF-8 Plain Text
Title : rus full
Language : Russian
Default : No
Forced : No
Text #2
ID : 5
Format : UTF-8
Codec ID : S_TEXT/UTF8
Codec ID/Info : UTF-8 Plain Text
Title : eng full
Language : English
Default : No
Forced : No
Text #3
ID : 6
Format : UTF-8
Codec ID : S_TEXT/UTF8
Codec ID/Info : UTF-8 Plain Text
Title : fre full
Language : French
Default : No
Forced : No
Menu
00:00:00.000 : :Chapter 1
00:05:13.000 : :Chapter 2
00:06:45.332 : :Chapter 3
00:10:54.290 : :Chapter 4
00:14:21.833 : :Chapter 5
00:19:24.666 : :Chapter 6
00:24:00.000 : :Chapter 7
00:31:17.583 : :Chapter 8
00:36:58.750 : :Chapter 9
00:41:43.375 : :Chapter 10
00:47:14.333 : :Chapter 11
00:54:20.041 : :Chapter 12
01:02:17.000 : :Chapter 13
01:12:00.541 : :Chapter 14
01:20:25.582 : :Chapter 15
01:27:33.875 : :Chapter 16
01:32:11.041 : :Chapter 17
01:33:55.207 : :Chapter 18
01:37:30.000 : :Chapter 19


Последний раз редактировалось: bot (2016-04-01 23:12), всего редактировалось 1 раз

[Цитировать]
maestro001

ссылка на кинопоиске ведет на фильм звездные войны.

[Цитировать]
Kryl

5596ссылка на кинопоиске ведет на фильм звездные войны.
Спасибо .
 
Показать сообщения:    

Текущее время: 07-Дек 19:22

Часовой пояс: UTC + 3


Вы не можете начинать темы
Вы не можете отвечать на сообщения
Вы не можете редактировать свои сообщения
Вы не можете удалять свои сообщения
Вы не можете голосовать в опросах
Вы не можете прикреплять файлы к сообщениям
Вы не можете скачивать файлы