VIP

  1. Longevity:
    7 years 2 months
    Posts:
    2422
    Gender:
    Male
    [kp]https://www.kinopoisk.ru/film/492171/[/kp] [imdb]http://www.imdb.com/title/tt1567609/[/imdb]«Вот такое хреновое лето»- Информация
    Название: «Весёлые» каникулы
    Оригинальное название: Get the Gringo
    Год выхода: 2012
    Жанр: Боевик, Триллер, Драма, Криминал
    Режиссер: Адриан Грюнберг
    Сценарий: Мэл Гибсон, Стэйси Перски, Адриан Грюнберг
    Продюсер: Мэл Гибсон, Брюс Дэвей, Стэйси Перски
    В ролях: Мэл Гибсон, Кевин Эрнандез, Долорес Эредия, Хесус Очоа, Петер Стормаре, Дин Норрис, София Сиснига, Стефани Николь Лемелин, Боб Гантон, Скотт Коэн
    --Сюжет:
    История злоключений пойманного мексиканскими властями преступника из Америки, заключенного в полную наркотиков и насилия тюрьму.
    -Страна: США
    Продолжительность: 01:35:59

    Файл
    Кодек: MPEG4/ISO/AVC/H.264
    Формат: MKV
    Качество: BDRip 1080p | 60 fps
    Видео: 1920 x 800 (2.400) | 59.940 fps | 24.0 Мбит/сек
    Аудио 1: AC3 | 5.1 | 48 kHz | 640 kbps | 16 bit | Дубляж |
    Аудио 2: AC3 | 5.1 | 48 kHz | 640 kbps | 16 bit | авторский - А. Гаврилов |
    Аудио 3: AC3 | 5.1 | 48 kHz | 640 kbps | 16 bit | авторский - Ю. Немахов |
    Аудио 4: AC3 | 5.1 | 48 kHz | 640 kbps | 16 bit | авторский - А. Багичев |
    Аудио 5: AC3 | 5.1 | 48 kHz | 640 kbps | 16 bit | авторский - А. Карповский |
    Аудио 6: AC3 | 5.1 | 48 kHz | 640 kbps | 16 bit | Englisn |
    Субтитры: Русские, английские

    MedifInfo

    Видео
    Идентификатор : 1
    Формат : AVC
    Формат/Информация : Advanced Video Codec
    Профиль формата : High@L4.1
    Параметр CABAC формата : Да
    Параметр ReFrames формата : 5 кадров
    Идентификатор кодека : V_MPEG4/ISO/AVC
    Продолжительность : 1 ч. 35 м.
    Битрейт : 24,0 Мбит/сек
    Ширина : 1920 пикселей
    Высота : 800 пикселей
    Соотношение сторон : 2,40:1
    Режим частоты кадров : Постоянный
    Частота кадров : 59,880 кадров/сек
    Частота кадров в оригинале : 59,940 кадров/сек
    Цветовое пространство : YUV
    Субдискретизация насыщенности : 4:2:0
    Битовая глубина : 8 бит
    Тип развёртки : Прогрессивная
    Бит/(Пиксели*Кадры) : 0.261
    Размер потока : 15,7 Гбайт (84%)
    Заголовок : www.60-fps.org
    Библиотека кодирования : x264 core 148 r2744 b97ae06
    Настройки программы : cabac=1 / ref=5 / deblock=1:-3:-3 / analyse=0x3:0x113 / me=umh / subme=8 / psy=1 / psy_rd=1.00:0.25 / mixed_ref=1 / me_range=32 / chroma_me=1 / trellis=1 / 8x8dct=1 / cqm=0 / deadzone=6,6 / fast_pskip=1 / chroma_qp_offset=-4 / threads=12 / lookahead_threads=2 / sliced_threads=0 / nr=0 / decimate=0 / interlaced=0 / bluray_compat=0 / constrained_intra=0 / bframes=3 / b_pyramid=2 / b_adapt=1 / b_bias=0 / direct=3 / weightb=1 / open_gop=0 / weightp=2 / keyint=599 / keyint_min=59 / scenecut=40 / intra_refresh=0 / rc_lookahead=50 / rc=2pass / mbtree=1 / bitrate=23999 / ratetol=1.0 / qcomp=0.80 / qpmin=0 / qpmax=69 / qpstep=4 / cplxblur=20.0 / qblur=0.5 / vbv_maxrate=62500 / vbv_bufsize=78125 / nal_hrd=none / filler=0 / ip_ratio=1.10 / aq=1:0.50
    Default : Да
    Forced : Нет
    Аудио #1
    Идентификатор : 2
    Формат : AC-3
    Формат/Информация : Audio Coding 3
    Расширение режима : CM (complete main)
    Параметр Endianness формата : Big
    Идентификатор кодека : A_AC3
    Продолжительность : 1 ч. 35 м.
    Вид битрейта : Постоянный
    Битрейт : 640 Кбит/сек
    Каналы : 6 каналов
    Расположение каналов : Front: L C R, Side: L R, LFE
    Частота : 48,0 КГц
    Битовая глубина : 16 бит
    Метод сжатия : С потерями
    Размер потока : 439 Мбайт (2%)
    Заголовок : Дублированный
    Язык : Russian
    Default : Да
    Forced : Нет
    Аудио #2
    Идентификатор : 3
    Формат : AC-3
    Формат/Информация : Audio Coding 3
    Расширение режима : CM (complete main)
    Параметр Endianness формата : Big
    Идентификатор кодека : A_AC3
    Продолжительность : 1 ч. 35 м.
    Вид битрейта : Постоянный
    Битрейт : 640 Кбит/сек
    Каналы : 6 каналов
    Расположение каналов : Front: L C R, Side: L R, LFE
    Частота : 48,0 КГц
    Битовая глубина : 16 бит
    Метод сжатия : С потерями
    Размер потока : 439 Мбайт (2%)
    Заголовок : Авторский, А. Гаврилов
    Язык : Russian
    Default : Нет
    Forced : Нет
    Аудио #3
    Идентификатор : 4
    Формат : AC-3
    Формат/Информация : Audio Coding 3
    Расширение режима : CM (complete main)
    Параметр Endianness формата : Big
    Идентификатор кодека : A_AC3
    Продолжительность : 1 ч. 35 м.
    Вид битрейта : Постоянный
    Битрейт : 640 Кбит/сек
    Каналы : 6 каналов
    Расположение каналов : Front: L C R, Side: L R, LFE
    Частота : 48,0 КГц
    Битовая глубина : 16 бит
    Метод сжатия : С потерями
    Размер потока : 439 Мбайт (2%)
    Заголовок : Авторский, Ю. Немахов
    Язык : Russian
    Default : Нет
    Forced : Нет
    Аудио #4
    Идентификатор : 5
    Формат : AC-3
    Формат/Информация : Audio Coding 3
    Расширение режима : CM (complete main)
    Параметр Endianness формата : Big
    Идентификатор кодека : A_AC3
    Продолжительность : 1 ч. 35 м.
    Вид битрейта : Постоянный
    Битрейт : 640 Кбит/сек
    Каналы : 6 каналов
    Расположение каналов : Front: L C R, Side: L R, LFE
    Частота : 48,0 КГц
    Битовая глубина : 16 бит
    Метод сжатия : С потерями
    Размер потока : 439 Мбайт (2%)
    Заголовок : Авторский, А. Багичев
    Язык : Russian
    Default : Нет
    Forced : Нет
    Аудио #5
    Идентификатор : 6
    Формат : AC-3
    Формат/Информация : Audio Coding 3
    Расширение режима : CM (complete main)
    Параметр Endianness формата : Big
    Идентификатор кодека : A_AC3
    Продолжительность : 1 ч. 35 м.
    Вид битрейта : Постоянный
    Битрейт : 640 Кбит/сек
    Каналы : 6 каналов
    Расположение каналов : Front: L C R, Side: L R, LFE
    Частота : 48,0 КГц
    Битовая глубина : 16 бит
    Метод сжатия : С потерями
    Размер потока : 439 Мбайт (2%)
    Заголовок : Авторский, А. Карповский
    Язык : Russian
    Default : Нет
    Forced : Нет
    Аудио #6
    Идентификатор : 7
    Формат : AC-3
    Формат/Информация : Audio Coding 3
    Расширение режима : CM (complete main)
    Параметр Endianness формата : Big
    Идентификатор кодека : A_AC3
    Продолжительность : 1 ч. 35 м.
    Вид битрейта : Постоянный
    Битрейт : 640 Кбит/сек
    Каналы : 6 каналов
    Расположение каналов : Front: L C R, Side: L R, LFE
    Частота : 48,0 КГц
    Битовая глубина : 16 бит
    Метод сжатия : С потерями
    Размер потока : 439 Мбайт (2%)
    Язык : English
    Default : Нет
    Forced : Нет
    Текст #1
    Идентификатор : 8
    Формат : UTF-8
    Идентификатор кодека : S_TEXT/UTF8
    Идентификатор кодека/Информация : UTF-8 Plain Text
    Язык : Russian
    Default : Нет
    Forced : Нет
    Текст #2
    Идентификатор : 9
    Формат : UTF-8
    Идентификатор кодека : S_TEXT/UTF8
    Идентификатор кодека/Информация : UTF-8 Plain Text
    Заголовок : Forced
    Язык : English
    Default : Нет
    Forced : Нет
    Текст #3
    Идентификатор : 10
    Формат : UTF-8
    Идентификатор кодека : S_TEXT/UTF8
    Идентификатор кодека/Информация : UTF-8 Plain Text
    Язык : English
    Default : Нет
    Forced : Нет
    Текст #4
    Идентификатор : 11
    Формат : UTF-8
    Идентификатор кодека : S_TEXT/UTF8
    Идентификатор кодека/Информация : UTF-8 Plain Text
    Заголовок : SDH.v1
    Язык : English
    Default : Нет
    Forced : Нет
    Текст #5
    Идентификатор : 12
    Формат : UTF-8
    Идентификатор кодека : S_TEXT/UTF8
    Идентификатор кодека/Информация : UTF-8 Plain Text
    Заголовок : SDH.v2
    Язык : English
    Default : Нет
    Forced : Нет
    Меню
    00:00:00.000 : en:00:00:00.000
    00:06:04.781 : en:00:06:04.781
    00:10:42.100 : en:00:10:42.100
    00:13:47.576 : en:00:13:47.576
    00:16:02.794 : en:00:16:02.794
    00:18:40.744 : en:00:18:40.744
    00:23:49.970 : en:00:23:49.970
    00:26:29.462 : en:00:26:29.462
    00:30:06.262 : en:00:30:06.262
    00:35:37.594 : en:00:35:37.594
    00:38:36.230 : en:00:38:36.230
    00:40:50.697 : en:00:40:50.697
    00:45:16.130 : en:00:45:16.130
    00:51:05.478 : en:00:51:05.478
    00:54:01.278 : en:00:54:01.278
    00:57:31.197 : en:00:57:31.197
    01:00:53.398 : en:01:00:53.398
    01:05:44.273 : en:01:05:44.273
    01:09:17.862 : en:01:09:17.862
    01:13:33.158 : en:01:13:33.158
    01:18:43.092 : en:01:18:43.092
    01:23:20.703 : en:01:23:20.703
    01:25:49.185 : en:01:25:49.185
    01:28:19.377 : en:01:28:19.377
    Киношка сделана по заказу пользователя Талямба

    Release was prepared by 60-fps.org

  2. Longevity:
    6 years
    Posts:
    15
    Gender:
    Male
    ЕЕЕЕЕ Талямба шарит в номр боевиках. Крутой И как всегда: "Моё уважение, Kryl" Овации
    17-Aug-2017 20:50 (after 8 hours)


You cannot post new topics in this forum
You cannot reply to topics in this forum
You cannot edit your posts in this forum
You cannot delete your posts in this forum
You cannot vote in polls in this forum
You cannot attach files in this forum
You cannot download files in this forum