[Цитировать]
BOT2

Великий уравнитель / The Equalizer Год выпуска: 2014 г.
Жанр: боевик, триллер, криминал
Страна: США
Режиссер: Антуан Фукуа
Продолжительность: 02:12:03
Перевод: Профессиональный (дублированный)
В ролях: Дензел Вашингтон, Мартон Чокаш, Хлоя Грейс Морец, Дэвид Харбор, Хейли Беннетт, Билл Пуллман, Мелисса Лео, Дэвид Мюнье, Джонни Скуртис, Алекс Видов
Описание: Роберт МакКолл — бывший спецназовец. После увольнения со службы он собирается начать нормальную мирную жизнь, дав себе обещание больше никогда не брать в руки оружия. Но в один прекрасный момент он встречает молодую девушку, зарабатывающую на жизнь проституцией, которую на его глазах избивают бандиты и увозят в неизвестном направлении. Тогда он решает отыскать ее, после чего вступает в неравную схватку с русской мафией и продажными полицейскими. Ради справедливости он готов нарушить собственное обещание и применить оружие против людей, которые просто не заслуживают жить в этом мире…
Формат видео: MKV
Качество видео: BDRip 1080p | 60fps
Видео кодек: H.264
Аудио кодек: AC3
Видео: 1920x800 (2.40:1), 59.940 fps, AVC, 41.5 Mbps
Аудио: AC3, 640 Kbps, 48.0 KHz, 6 ch
Cубтитры: русские (форсировнные)
Формат субтитров: softsub (SRT)
Релиз by:

Отчёт MediaInfo

General
Complete name : Великий Уравнитель 60fps.mkv
Format : Matroska
File size : 38.8 GiB
Duration : 2h 12mn
Overall bit rate : 42.1 Mbps
Encoded date : UTC 2015-04-19 15:46:11
Writing application : mkvmerge v7.8.0 ('River Man') 64bit built on Mar 27 2015 16:31:37
Writing library : libebml v1.3.1 + libmatroska v1.4.2
Video
ID : 1
Format : AVC
Format/Info : Advanced Video Codec
Format profile : High@L4.0
Format settings, CABAC : Yes
Format settings, ReFrames : 4 frames
Format settings, GOP : M=2, N=32
Muxing mode : Container profile=Unknown@4.0
Codec ID : V_MPEG4/ISO/AVC
Duration : 2h 12mn
Bit rate : 41.5 Mbps
Width : 1 920 pixels
Height : 800 pixels
Display aspect ratio : 2.40:1
Frame rate : 59.940 fps
Color space : YUV
Chroma subsampling : 4:2:0
Bit depth : 8 bits
Scan type : Progressive
Bits/(Pixel*Frame) : 0.451
Stream size : 37.5 GiB (96%)
Writing library : x264 core 130 r2273 b3065e6
Encoding settings : cabac=1 / ref=4 / deblock=1:0:0 / analyse=0x3:0x113 / me=tesa / subme=7 / psy=1 / psy_rd=1.00:0.00 / mixed_ref=1 / me_range=16 / chroma_me=1 / trellis=2 / 8x8dct=1 / cqm=0 / deadzone=21,11 / fast_pskip=1 / chroma_qp_offset=-2 / threads=12 / lookahead_threads=2 / sliced_threads=0 / nr=0 / decimate=1 / interlaced=0 / bluray_compat=0 / constrained_intra=0 / bframes=5 / b_pyramid=2 / b_adapt=1 / b_bias=0 / direct=3 / weightb=1 / open_gop=0 / weightp=2 / keyint=250 / keyint_min=25 / scenecut=40 / intra_refresh=0 / rc_lookahead=40 / rc=2pass / mbtree=1 / bitrate=41477 / ratetol=1.0 / qcomp=0.60 / qpmin=0 / qpmax=69 / qpstep=4 / cplxblur=20.0 / qblur=0.5 / ip_ratio=1.40 / aq=1:1.00
Audio
ID : 2
Format : AC-3
Format/Info : Audio Coding 3
Mode extension : CM (complete main)
Codec ID : A_AC3
Duration : 2h 12mn
Bit rate mode : Constant
Bit rate : 640 Kbps
Channel(s) : 6 channels
Channel positions : Front: L C R, Side: L R, LFE
Sampling rate : 48.0 KHz
Bit depth : 16 bits
Stream size : 604 MiB (2%)
Language : Russian
Text
ID : 3
Format : UTF-8
Codec ID : S_TEXT/UTF8
Codec ID/Info : UTF-8 Plain Text
Title : Russ Fors
Language : Russian

Знаете ли Вы, что...

· Фильм основан на телесериале «Уравнитель» (1985-1989). Шоу было настолько популярным, что люди на улице подходили к исполнителю главной роли Эдварду Вудворду и просили его помочь – не как актера, а как «бывшего тайного агента».
· Главный герой использует часы Suunto Core All Black. На дисплее большими цифрами отображается секундомер. В стандартной модели нет такой возможности. Часы были специально модифицированы для съёмок фильма.
· Первоначально планировалось, что Роберта МакКолла сыграет Рассел Кроу.
· Роль Терри была изначально написана для более взрослой актрисы, но Хлоя Грейс Морец так сильно впечатлила режиссера, что роль переписали под нее.
· Мелисса Лео ранее снималась в сериале «Уравнитель» (1985-1989).
· Практически все боевые сцены Дензел Вашингтон исполнил самостоятельно.
· Идея одной из самых жестоких боевых сцен принадлежит режиссеру Антуану Фукуа. Он специально встретился с приятелем, знающем много о криминальном мире, и попросил рассказать о правилах уличного боя. Тот положил на стол кучу предметов, достал из них штопор и показал пару приемов.
· Роль преступника-социопата исполнил Мартон Чокаш. Он не хотел, чтобы его герой говорил с типичным восточнославянским акцентом, поэтому его персонаж использует некоторые слова и фразы из слэнга кокни.
· В процессе подготовки к съемкам Хлоя Грейс Морец связалась с организацией «Дети ночи»: ее сотрудники помогают американкам, попавшим в беду. Актриса смогла не только пообщаться с этими девушками, но и привлечь внимание к деятельности организации.
· Для более реалистичной постановки боевых сцен Антуан Фукуа встречался с профессиональными боксерами. Именно благодаря этим беседам он понял, что необходимо немного замедлить темп в сценах драк.

Топик был перенесен из форума Temp в форум Зарубежные фильмы 60fps
KRYL

[Цитировать]
BOT2

Всем приятного просмотра! Желательно воспроизводить на телике по HDMI.
 
Показать сообщения:    

Текущее время: 07-Дек 19:26

Часовой пояс: UTC + 3


Вы не можете начинать темы
Вы не можете отвечать на сообщения
Вы не можете редактировать свои сообщения
Вы не можете удалять свои сообщения
Вы не можете голосовать в опросах
Вы не можете прикреплять файлы к сообщениям
Вы не можете скачивать файлы