[Цитировать]
mimok

Великий уравнитель / The Equalizer (2014) BDRip 720p | 60fps «What do you see when you look at me?»- Год выпуска: 2014
Производство: США / Columbia Pictures, Village Roadshow Pictures
Жанр: Боевик, триллер, криминал-Режиссер: Антуан Фукуа
Продюсер: Тодд Блэк, Джейсон Блюменталь, Тони Элдридж
Актеры: Дензел Вашингтон , Мартон Чокаш , Хлоя Грейс Морец , Дэвид Харбор , Хейли Беннетт , Билл Пуллман , Мелисса Лео , Дэвид Мюнье , Джонни Скуртис , Алекс Видов , Владимир Кулих , Э. Роджер Митчелл-Описание фильма:
Роберт МакКолл — бывший спецназовец. После увольнения со службы он собирается начать нормальную мирную жизнь, дав себе обещание больше никогда не брать в руки оружия. Но в один прекрасный момент он встречает молодую девушку, зарабатывающую на жизнь проституцией, которую на его глазах избивают бандиты и увозят в неизвестном направлении. Тогда он решает отыскать ее, после чего вступает в неравную схватку с русской мафией и продажными агентами ЦРУ. Ради справедливости он готов нарушить собственное обещание и применить оружие против людей, которые просто не заслуживают жить в этом мире…-Перевод: Профессиональный (полное дублирование), BD EUR
Субтитры: Вшитые,не отключаемые (надписи и пр.), отключаемые
Язык субтитров: Русский (Forsed, Full), Английский (Full)- -Дата мировой премьеры: 7 сентября 2014, Канада
Дата российской премьеры: 25 сентября 2014, «WDSSPR»
Дата выхода DVD релиза: 15 января 2015, «CP Дистрибуция»
Дата выхода Blu-Ray релиза: 15 января 2015, «CP Дистрибуция»-Продолжительность: 02:12:02
Качество видео: BDRip 720p-Видеокодек: MPEG-4 AVC/H.264
Битрейт видео: ~ 3676 Кбит/сек
Размер кадра: 1280 x 544
Аудио: AC3 5.1, 48.0 KHz, 640 Кбит/сек - Русский-

MediaInfo

Общее
Уникальный идентификатор : 180006573922068866731626591348673184209 (0x876C014D992CC853AEE26D24ACCB81D1)
Полное имя : D:\Торренты\The Equalizer 60fps.mkv
Формат : Matroska
Версия формата : Version 2
Размер файла : 4,06 Гбайт
Продолжительность : 2 ч. 12 м.
Общий поток : 4403 Кбит/сек
Название фильма : The Equalizer (2014) 1080p BD-Remux
Дата кодирования : UTC 2014-12-20 14:48:18
Программа кодирования : mkvmerge v6.9.1 ('Blue Panther') 64bit built on Apr 18 2014 18:23:38
Библиотека кодирования : libebml v1.3.0 + libmatroska v1.4.1
Видео
Идентификатор : 1
Формат : AVC
Формат/Информация : Advanced Video Codec
Профиль формата : High@L4.1
Параметр CABAC формата : Да
Параметр ReFrames формата : 6 кадров
Идентификатор кодека : V_MPEG4/ISO/AVC
Продолжительность : 2 ч. 12 м.
Битрейт : 3676 Кбит/сек
Ширина : 1280 пикселей
Высота : 544 пикселя
Соотношение сторон : 2,35:1
Режим частоты кадров : Постоянный
Частота кадров : 59,880 кадров/сек
Частота кадров в оригинале : 59,940 кадров/сек
Цветовое пространство : YUV
Субдискретизация насыщенности : 4:2:0
Битовая глубина : 8 бит
Тип развёртки : Прогрессивная
Бит/(Пиксели*Кадры) : 0.088
Размер потока : 3,39 Гбайт (83%)
Заголовок : Release by mimok
Библиотека кодирования : x264 core 125 r2208 d9d2288
Настройки программы : cabac=1 / ref=6 / deblock=0:0:0 / analyse=0x3:0x133 / me=umh / subme=8 / psy=1 / psy_rd=1.00:0.15 / mixed_ref=1 / me_range=20 / chroma_me=1 / trellis=2 / 8x8dct=1 / cqm=0 / deadzone=21,11 / fast_pskip=0 / chroma_qp_offset=-3 / threads=6 / lookahead_threads=1 / sliced_threads=0 / nr=0 / decimate=0 / interlaced=0 / bluray_compat=0 / constrained_intra=0 / bframes=8 / b_pyramid=2 / b_adapt=2 / b_bias=0 / direct=1 / weightb=1 / open_gop=0 / weightp=2 / keyint=600 / keyint_min=59 / scenecut=40 / intra_refresh=0 / rc=crf / mbtree=0 / crf=17.0 / qcomp=0.63 / qpmin=10 / qpmax=51 / qpstep=4 / ip_ratio=1.40 / pb_ratio=1.30 / aq=1:1.20
Default : Да
Forced : Нет
Аудио
Идентификатор : 2
Формат : AC-3
Формат/Информация : Audio Coding 3
Расширение режима : CM (complete main)
Параметр Endianness формата : Big
Идентификатор кодека : A_AC3
Продолжительность : 2 ч. 12 м.
Вид битрейта : Постоянный
Битрейт : 640 Кбит/сек
Каналы : 6 каналов
Расположение каналов : Front: L C R, Side: L R, LFE
Частота : 48,0 КГц
Битовая глубина : 16 бит
Метод сжатия : С потерями
Размер потока : 604 Мбайт (15%)
Заголовок : Dub
Язык : Russian
Default : Да
Forced : Нет
Текст #1
Идентификатор : 3
Формат : UTF-8
Идентификатор кодека : S_TEXT/UTF8
Идентификатор кодека/Информация : UTF-8 Plain Text
Заголовок : Full
Язык : Russian
Default : Да
Forced : Нет
Текст #2
Идентификатор : 4
Формат : UTF-8
Идентификатор кодека : S_TEXT/UTF8
Идентификатор кодека/Информация : UTF-8 Plain Text
Заголовок : Full
Язык : English
Default : Нет
Forced : Нет

Скринлист

Скриншоты:
 
Показать сообщения:    

Текущее время: 09-Дек 22:17

Часовой пояс: UTC + 3


Вы не можете начинать темы
Вы не можете отвечать на сообщения
Вы не можете редактировать свои сообщения
Вы не можете удалять свои сообщения
Вы не можете голосовать в опросах
Вы не можете прикреплять файлы к сообщениям
Вы не можете скачивать файлы