[Цитировать]
Гость

-Название: Великий диктатор
Оригинальное название: The Great Dictator
Год выпуска: 1940
Страна: США
Жанр: драма, комедия, военный
Продолжительность: 02:05:35
Перевод: Профессиональный многоголосый
Субтитры: русские (Полные), английские (Полные)-Режиссер: Чарльз Чаплин / Charles Chaplin-В ролях: Чарльз Чаплин (Hynkel - Dictator of Tomania / A Jewish Barber), Джек Оуки (Napaloni - Dictator of Bacteria), Реджинальд Гардинер (Schultz), Генри Дэниелл (Garbitsch), Билли Гилберт (Herring), Грейс Хейл (Madame Napaloni), Картер Де Хейвен (Bacterian Ambassador), Полетт Годдар (Hannah), Морис Москович (Mr. Jaeckel), Эмма Данн (Mrs. Jaeckel), Бернард Горси (Mr. Mann), Пауль Вайгель (Mr. Agar)-Описание:
Первый полностью звуковой фильм Чарльза Чаплина. Он играет сразу две роли: фашистского диктатора Аденоида Хинкеля (недвусмысленно загримированной под Гитлера) и еврея - парикмахера, который как две капли воды похож на него.-Рейтинг

imdb.com: 8.50 (98 918)
MPAA: G - Нет возрастных ограничений-Автор рипа:Tiberiumsun69
-Качество: BDRip 1080p / 60 FPS
Формат: MKV
Видео кодек: AVC
Аудио кодек:AC3
Видео: AVC, 1440x1080, 14000 kbps, 59,940 fps
Аудио №1: русский / AC3 / 2.0 / 48 kHz / 192 kbps / 16 bit |Многоголосый, закадровый|
Аудио №2: английский / AC3 / 1 / 48 kHz / 640 kbps / 16 bit
Навигация по главам: есть- -

MI

General
Unique ID : 187497461082358280676723906077560713787 (0x8D0EB28E04629707A02F5D5034D0B23B)
Complete name : A:1080p 60fpsВеликий диктатор 1080p 60fps.mkv
Format : Matroska
Format version : Version 4 / Version 2
File size : 13.0 GiB
Duration : 2h 5mn
Overall bit rate : 14.8 Mbps
Encoded date : UTC 2014-10-25 06:36:11
Writing application : mkvmerge v6.9.1 ('Blue Panther') 64bit built on Apr 18 2014 18:23:38
Writing library : libebml v1.3.0 + libmatroska v1.4.1
Video
ID : 1
Format : AVC
Format/Info : Advanced Video Codec
Format profile : High@L4.1
Format settings, CABAC : Yes
Format settings, ReFrames : 4 frames
Codec ID : V_MPEG4/ISO/AVC
Duration : 2h 5mn
Bit rate : 14.0 Mbps
Width : 1 440 pixels
Height : 1 080 pixels
Display aspect ratio : 4:3
Frame rate : 59.940 fps
Color space : YUV
Chroma subsampling : 4:2:0
Bit depth : 8 bits
Scan type : Progressive
Bits/(Pixel*Frame) : 0.150
Stream size : 12.0 GiB (92%)
Writing library : x264 core 130 r2273 b3065e6
Encoding settings : cabac=1 / ref=4 / deblock=1:-1:-1 / analyse=0x3:0 / me=umh / subme=9 / psy=1 / psy_rd=1.00:0.00 / mixed_ref=1 / me_range=44 / chroma_me=0 / trellis=2 / 8x8dct=1 / cqm=0 / deadzone=21,11 / fast_pskip=0 / chroma_qp_offset=-2 / threads=12 / lookahead_threads=1 / sliced_threads=0 / nr=0 / decimate=0 / interlaced=0 / bluray_compat=0 / constrained_intra=0 / bframes=5 / b_pyramid=2 / b_adapt=2 / b_bias=0 / direct=3 / weightb=1 / open_gop=0 / weightp=2 / keyint=250 / keyint_min=59 / scenecut=40 / intra_refresh=0 / rc_lookahead=60 / rc=2pass / mbtree=1 / bitrate=14000 / ratetol=1.0 / qcomp=0.80 / qpmin=0 / qpmax=69 / qpstep=4 / cplxblur=20.0 / qblur=0.5 / ip_ratio=1.40 / aq=1:0.80
Language : English
Default : Yes
Forced : No
Audio #1
ID : 2
Format : AC-3
Format/Info : Audio Coding 3
Mode extension : CM (complete main)
Codec ID : A_AC3
Duration : 2h 5mn
Bit rate mode : Constant
Bit rate : 192 Kbps
Channel(s) : 2 channels
Channel positions : Front: L R
Sampling rate : 48.0 KHz
Bit depth : 16 bits
Compression mode : Lossy
Stream size : 172 MiB (1%)
Title : Многоголосый, закадровый
Language : Russian
Default : Yes
Forced : No
Audio #2
ID : 3
Format : AC-3
Format/Info : Audio Coding 3
Mode extension : CM (complete main)
Codec ID : A_AC3
Duration : 2h 5mn
Bit rate mode : Constant
Bit rate : 640 Kbps
Channel(s) : 1 channel
Channel positions : Front: C
Sampling rate : 48.0 KHz
Bit depth : 16 bits
Compression mode : Lossy
Stream size : 575 MiB (4%)
Title : Оригинал
Language : English
Default : No
Forced : No
Text #1
ID : 4
Format : UTF-8
Codec ID : S_TEXT/UTF8
Codec ID/Info : UTF-8 Plain Text
Title : Полные
Language : Russian
Default : No
Forced : No
Text #2
ID : 5
Format : UTF-8
Codec ID : S_TEXT/UTF8
Codec ID/Info : UTF-8 Plain Text
Title : Полные
Language : English
Default : No
Forced : No
Menu
00:00:00.000 : en:1. Opening Credits
00:02:23.977 : en:2. The World War, 1918
00:08:25.046 : en:3. Behind Enemy Lines
00:14:33.623 : en:4. "Hynkel Party Takes Power!"
00:23:58.437 : en:5. Life in the ghetto
00:28:03.765 : en:6. The barber returns
00:33:49.819 : en:7. "One of my friends"
00:37:41.217 : en:8. Hynkel keeps busy
00:43:34.612 : en:9. "Too good to be true"
00:49:36.390 : en:10. "Emperor of the world"
00:56:17.916 : en:11. Barber in the ghetto
01:00:04.726 : en:12. New message from Hynkel
01:05:45.650 : en:13. Storm troopers return
01:10:25.555 : en:14. Coin in the pudding
01:17:28.936 : en:15. Out of the ghetto
01:25:46.600 : en:16. Plans for Osterlich
01:30:07.444 : en:17. Napaloni's visit
01:39:38.514 : en:18. Hynkel's maneuvers
01:49:56.757 : en:19. "You're invading Osterlich"
01:55:52.779 : en:20. "The world awaits your word"

Скриншоты

Просьба к переливающим на другие сайты, в оформлении указывайте пожалуйста авторство рипа - Tiberiumsun69
 
Показать сообщения:    

Текущее время: 05-Дек 05:24

Часовой пояс: UTC + 3


Вы не можете начинать темы
Вы не можете отвечать на сообщения
Вы не можете редактировать свои сообщения
Вы не можете удалять свои сообщения
Вы не можете голосовать в опросах
Вы не можете прикреплять файлы к сообщениям
Вы не можете скачивать файлы