[Цитировать]
Kryl

«1700 лет ушло на строительство. 8851 км неприступных стен. Какой враг угрожал империи?»- Информация
Название: Великая стена
Оригинальное название: The Great Wall
Год выхода: 2016
Жанр: Фэнтези, боевик, триллер, детектив, приключения
Режиссер: Чжан Имоу
Сценарий: Карло Бернард, Даг Миро, Тони Гилрой
Продюсер: Джон Дж. Джашни, Питер Лоэр, Чарльз Ровен
В ролях: Мэтт Дэймон, Тянь Цзин, Педро Паскаль, Лу Хан, Уиллем Дефо, Энди Лау, Эдди Пэн, Нуман Акар, Кенни Лин, Ханьюй Чжан, Вики Юй, Лю Бин, Чжэн Кай, Джонни Чикко, Чэни Чэнь, Кэрри Ван
--Сюжет:
На протяжении многих столетий каждые 60 лет на Великую стену набегают мифические пожиратели плоти, чередуясь с монголами и опиумными караванами. Двое европейских наемников из отсталых стран невольно оказываются втянутыми в круговорот веществ внутри пищевой цепи. Теперь им нужно решить для себя сложную нравственную дилемму - без шума и пыли вывезти пригоршню взрывающегося черного порошка, или все-таки помочь разноцветным войскам Поднебесной остановить вторжение орд кошмарных тварей
- Страна: США, Китай, Гонконг, Австралия, Канада
Продолжительность: 01:43:03

Файл
Кодек: MPEG4/ISO/AVC/H.264
Формат: MKV
Качество: BDRip 1080p | 60 fps
Видео: 1920 x 804 (2.388) | 59.940 fps | 23.0 Мбит/сек
Аудио 1: AC3 | 5.1 | 48 kHz | 640 kbps | 16 bit | Дубляж |
Аудио 2: AC3 | 5.1 | 48 kHz | 640 kbps | 16 bit | Eng |
Субтитры: Русские (форсированные, полные), английские (полные)

MedifInfo

Видео
Идентификатор : 1
Формат : AVC
Формат/Информация : Advanced Video Codec
Профиль формата : High@L4.1
Параметр CABAC формата : Да
Параметр ReFrames формата : 5 кадров
Идентификатор кодека : V_MPEG4/ISO/AVC
Продолжительность : 1 ч. 43 м.
Битрейт : 23,0 Мбит/сек
Ширина : 1920 пикселей
Высота : 804 пикселя
Соотношение сторон : 2,40:1
Режим частоты кадров : Постоянный
Частота кадров : 59,880 кадров/сек
Частота кадров в оригинале : 59,940 кадров/сек
Цветовое пространство : YUV
Субдискретизация насыщенности : 4:2:0
Битовая глубина : 8 бит
Тип развёртки : Прогрессивная
Бит/(Пиксели*Кадры) : 0.249
Размер потока : 16,2 Гбайт (93%)
Заголовок : www.60-fps.org
Библиотека кодирования : x264 core 148 r2638 7599210
Настройки программы : cabac=1 / ref=5 / deblock=1:-3:-3 / analyse=0x3:0x113 / me=umh / subme=8 / psy=1 / psy_rd=1.00:0.25 / mixed_ref=1 / me_range=32 / chroma_me=1 / trellis=1 / 8x8dct=1 / cqm=0 / deadzone=6,6 / fast_pskip=1 / chroma_qp_offset=-4 / threads=12 / lookahead_threads=2 / sliced_threads=0 / nr=0 / decimate=0 / interlaced=0 / bluray_compat=0 / constrained_intra=0 / bframes=3 / b_pyramid=2 / b_adapt=2 / b_bias=0 / direct=3 / weightb=1 / open_gop=0 / weightp=2 / keyint=599 / keyint_min=59 / scenecut=40 / intra_refresh=0 / rc_lookahead=50 / rc=2pass / mbtree=1 / bitrate=22999 / ratetol=1.0 / qcomp=0.80 / qpmin=0 / qpmax=69 / qpstep=4 / cplxblur=20.0 / qblur=0.5 / vbv_maxrate=62500 / vbv_bufsize=78125 / nal_hrd=none / filler=0 / ip_ratio=1.10 / aq=1:0.50
Default : Да
Forced : Нет
Аудио #1
Идентификатор : 2
Формат : AC-3
Формат/Информация : Audio Coding 3
Расширение режима : CM (complete main)
Параметр Endianness формата : Big
Идентификатор кодека : A_AC3
Продолжительность : 1 ч. 43 м.
Вид битрейта : Постоянный
Битрейт : 640 Кбит/сек
Каналы : 6 каналов
Расположение каналов : Front: L C R, Side: L R, LFE
Частота : 48,0 КГц
Битовая глубина : 16 бит
Метод сжатия : С потерями
Размер потока : 472 Мбайт (3%)
Заголовок : Дубляж
Язык : Russian
Default : Да
Forced : Нет
Аудио #2
Идентификатор : 3
Формат : AC-3
Формат/Информация : Audio Coding 3
Расширение режима : CM (complete main)
Параметр Endianness формата : Big
Идентификатор кодека : A_AC3
Продолжительность : 1 ч. 43 м.
Вид битрейта : Постоянный
Битрейт : 640 Кбит/сек
Каналы : 6 каналов
Расположение каналов : Front: L C R, Side: L R, LFE
Частота : 48,0 КГц
Битовая глубина : 16 бит
Метод сжатия : С потерями
Размер потока : 472 Мбайт (3%)
Заголовок : Original
Язык : English
Default : Нет
Forced : Нет
Текст #1
Идентификатор : 4
Формат : UTF-8
Идентификатор кодека : S_TEXT/UTF8
Идентификатор кодека/Информация : UTF-8 Plain Text
Заголовок : FORCED
Язык : Russian
Default : Да
Forced : Нет
Текст #2
Идентификатор : 5
Формат : UTF-8
Идентификатор кодека : S_TEXT/UTF8
Идентификатор кодека/Информация : UTF-8 Plain Text
Заголовок : FULL
Язык : Russian
Default : Нет
Forced : Нет
Текст #3
Идентификатор : 6
Формат : UTF-8
Идентификатор кодека : S_TEXT/UTF8
Идентификатор кодека/Информация : UTF-8 Plain Text
Заголовок : FULL
Язык : English
Default : Нет
Forced : Нет
Меню
00:00:00.000 : en:00:00:00.000
00:05:58.358 : en:00:05:58.358
00:11:47.540 : en:00:11:47.540
00:16:53.679 : en:00:16:53.679
00:20:13.254 : en:00:20:13.254
00:25:11.009 : en:00:25:11.009
00:28:55.317 : en:00:28:55.317
00:33:57.744 : en:00:33:57.744
00:37:54.147 : en:00:37:54.147
00:42:42.935 : en:00:42:42.935
00:46:18.943 : en:00:46:18.943
00:50:27.691 : en:00:50:27.691
00:56:46.069 : en:00:56:46.069
01:01:58.048 : en:01:01:58.048
01:07:12.820 : en:01:07:12.820
01:12:08.533 : en:01:12:08.533
01:18:20.863 : en:01:18:20.863
01:23:25.083 : en:01:23:25.083
01:27:26.158 : en:01:27:26.158
01:31:14.386 : en:01:31:14.386

Релиз подготовлен 60 - fps



Последний раз редактировалось: Kryl (2017-05-13 21:19), всего редактировалось 1 раз

[Цитировать]
Талямба

кайфовый фильм.давно ждал.благодарю релизера... ! Овации

Информация от Kryl


Замена звука на лицензию + добавлены русские субтитры .

[Цитировать]
Талямба

Слушай,а теперь нужно по новой качать или можно просто удалить запись с торента и по сылке занова запустить и перепроверить данные,что бы подгрузился новый звук... ? Нет слов

[Цитировать]
Kryl

7864Слушай,а теперь нужно по новой качать или можно просто удалить запись с торента и по сылке занова запустить и перепроверить данные,что бы подгрузился новый звук... ? Нет слов
по новой ...

[Цитировать]
ENIGMA

Большое Спасибо :)

[Цитировать]
Kuajissx

Спасибо Kryl !

[Цитировать]
Kryl

7995Большое Спасибо :)
8040Спасибо Kryl !
пожалуйста ....

[Цитировать]
ges1981

Большое спасибо за фильм. Классное качество. Улыбаюсь
Подскажите кто в курсе у меня в динамических сценах (летящий топор, крутится копьё, летит стрела) контуры этих объектов как бы превращаются в пиксели и немного размываются. Никакого торможения в воспроизведении при этом не происходит. Пробовал как на компе так и на телевизоре, никакой разницы. Это связано с железом, програмным обеспечением или просто такая запись фильма в процессе обработки?

[Цитировать]
Kryl

да это при кодировании , смазывание идет ...
 
Показать сообщения:    

Текущее время: 18-Окт 13:58

Часовой пояс: UTC + 3


Вы не можете начинать темы
Вы не можете отвечать на сообщения
Вы не можете редактировать свои сообщения
Вы не можете удалять свои сообщения
Вы не можете голосовать в опросах
Вы не можете прикреплять файлы к сообщениям
Вы не можете скачивать файлы