12 стульев (1971) BDRip 1080p | 60 fps Чистилище (1997) DVDRip 720p | 60 fps Джентльмены удачи (1971) BDRip-AVC | 60 fps Аванпост / The Blackout (2019) BDRip 1080p | 60 fps Кома (2020) BDRip 1080p | 60 fps Бриллиантовая рука (1968) BDRip 1080p | 60 fps Тарас Бульба (2009) BDRip 1080p | 60 fps Операция «Ы» и другие приключения Шурика (1965) BDRip-AVC | 60 fps
  1. Longevity:
    6 years
    Posts:
    2419
    Gender:
    Male
    «Family»- Информация о фильме
    Название: Вечера на хуторе близ Диканьки
    Год выхода: 1961
    Жанр: Экранизация, Сказка
    Режиссер: Александр Роу
    Сценарий: Александр Роу, Николай Гоголь
    Директор фильма: Александр Демьяненко
    В ролях: Александр Хвыля, Л.Мызникова, Юрий Тавров, Людмила Хитяева, Сергей Мартинсон, Анатолий Кубацкий, Вера Алтайская, Дмитрий Капка, Николай Яковченко, М.Сидорчук, А.Радунский, Георгий Милляр, Алексей Смирнов, Михаил Трояновский, Александр Демьяненко
    --О фильме:
    Веселая история про то, как в рождественскую ночь в украинском селе всех попутал бес и как могучему кузнецу Вакуле удалось одолеть нечистую силу и добыть для своей невесты царские черевички. Экранизация повести Н. В. Гоголя «Ночь перед Рождеством».- Страна: СССР
    Продолжительность: 01:06:00
    - Файл
    Кодек: MPEG4/ISO/AVC H.264
    Формат: MKV
    Качество: DVDRip 60 fps
    Видео: 720 x 576 (1.250) | 60.000 fps | 3.0 Мбит/сек
    Аудио: AC-3 | 5.1 | 48 kHz | 448 Кбит/сек | 16 bit |

    MedifInfo

    Видео
    Идентификатор : 1
    Формат : AVC
    Формат/Информация : Advanced Video Codec
    Профиль формата : High@L4.1
    Параметр CABAC формата : Да
    Параметр ReFrames формата : 3 кадра
    Идентификатор кодека : V_MPEG4/ISO/AVC
    Продолжительность : 1 ч. 5 м.
    Вид битрейта : Переменный
    Битрейт : 2922 Кбит/сек
    Максимальный битрейт : 3000 Кбит/сек
    Ширина : 720 пикселей
    Высота : 576 пикселей
    Соотношение сторон : 5:4
    Режим частоты кадров : Постоянный
    Частота кадров : 60,000 кадров/сек
    Стандарт вещания : PAL
    Цветовое пространство : YUV
    Субдискретизация насыщенности : 4:2:0
    Битовая глубина : 8 бит
    Тип развёртки : Прогрессивная
    Бит/(Пиксели*Кадры) : 0.117
    Размер потока : 1,35 Гбайт (85%)
    Заголовок : www.60-fps.org
    Язык : English
    Default : Да
    Forced : Нет
    Основные цвета : BT.601 PAL
    Характеристики трансфера : BT.470 System B, BT.470 System G
    Коэффициенты матрицы : BT.601
    colour_range : Limited
    Аудио
    Идентификатор : 2
    Формат : AC-3
    Формат/Информация : Audio Coding 3
    Расширение режима : CM (complete main)
    Параметр Endianness формата : Big
    Идентификатор кодека : A_AC3
    Продолжительность : 1 ч. 5 м.
    Вид битрейта : Постоянный
    Битрейт : 448 Кбит/сек
    Каналы : 6 каналов
    Расположение каналов : Front: L C R, Side: L R, LFE
    Частота : 48,0 КГц
    Битовая глубина : 16 бит
    Метод сжатия : С потерями
    Размер потока : 211 Мбайт (13%)
    Заголовок : AC3
    Язык : Russian
    Default : Да
    Forced : Нет

    Release was prepared by 60 - fps

  2. Longevity:
    4 years 9 months
    Posts:
    48
    Gender:
    Male
    классная запись!спасибо
    09-Jan-2016 15:26 (after 17 days)


You cannot post new topics in this forum
You cannot reply to topics in this forum
You cannot edit your posts in this forum
You cannot delete your posts in this forum
You cannot vote in polls in this forum
You cannot attach files in this forum
You cannot download files in this forum