Вавилон Н.Э / Babylon A.D. (2008) BDRip 720p
| Extended Cut | 60 fps
- Информация
Название: Вавилон Н.Э
Оригинальное название: Babylon A.D.
Год выхода: 2015
Жанр: Фантастика, боевик, триллер, приключения, экранизация
Режиссер: Матьё Кассовиц
Сценарий: Матьё Кассовиц, Эрик Беснард, Джозеф Симас
Продюсер: Матьё Кассовиц, Селвин Робертс, Ален Голдман
В ролях: Вин Дизель, Мишель Йео, Мелани Тьерри, Жерар Депардьё, Шарлотта Рэмплинг, Марк Стронг, Ламбер Вильсон, Жером Ле Баннер, Джоэль Кирби
--Сюжет:
Крутой наемник Туроп, побывавший во многих горячих точках планеты, получает предложение, от которого не может отказаться. Главарь мафии Горский хочет, чтобы он доставил из Восточной Европы в Нью-Йорк загадочную девушку. Но очень скоро становится ясно, что на нее идет настоящая охота, возглавляемая могущественным религиозным орденом…- - Страна: Франция
Продолжительность: 01:40:58

Файл
Кодек: MPEG4/ISO/AVC H.264
Формат: MKV
Качество: BDRip 720p | 60 fps
Видео: 1280x546 | 59.940 fps | 6.8 Мбит/сек
Аудио 1: AC3 | 5.1 | 48 kHz | 448 kbps | 16 bit | Дубляж |
Аудио 2: AC3 | 5.1 | 48 kHz | 448 kbps | 16 bit | ENG |
Субтитры: Русские | Полные, Английские | Полные

MedifInfo

Video
ID : 1
Format : AVC
Format/Info : Advanced Video Codec
Format profile : High@L4.1
Format settings, CABAC : Yes
Format settings, ReFrames : 9 frames
Codec ID : V_MPEG4/ISO/AVC
Duration : 1h 40mn
Bit rate : 6 896 Kbps
Width : 1 280 pixels
Height : 546 pixels
Display aspect ratio : 2.35:1
Frame rate mode : Constant
Frame rate : 59.880 fps
Original frame rate : 59.940 fps
Color space : YUV
Chroma subsampling : 4:2:0
Bit depth : 8 bits
Scan type : Progressive
Bits/(Pixel*Frame) : 0.165
Stream size : 4.86 GiB (87%)
Writing library : x264 core 146 r2538 121396c
Encoding settings : cabac=1 / ref=9 / deblock=1:0:0 / analyse=0x3:0x113 / me=umh / subme=10 / psy=1 / psy_rd=1.00:0.00 / mixed_ref=1 / me_range=24 / chroma_me=1 / trellis=2 / 8x8dct=1 / cqm=0 / deadzone=21,11 / fast_pskip=0 / chroma_qp_offset=-2 / threads=12 / lookahead_threads=1 / sliced_threads=0 / nr=0 / decimate=1 / interlaced=0 / bluray_compat=0 / constrained_intra=0 / bframes=5 / b_pyramid=2 / b_adapt=2 / b_bias=0 / direct=3 / weightb=1 / open_gop=0 / weightp=2 / keyint=250 / keyint_min=25 / scenecut=40 / intra_refresh=0 / rc_lookahead=40 / rc=crf / mbtree=0 / crf=18.0 / qcomp=0.60 / qpmin=0 / qpmax=69 / qpstep=4 / vbv_maxrate=14000 / vbv_bufsize=14000 / crf_max=0.0 / nal_hrd=none / filler=0 / ip_ratio=1.40 / pb_ratio=1.30 / aq=3:1.00
Language : English
Default : Yes
Forced : No
Audio #1
ID : 2
Format : AC-3
Format/Info : Audio Coding 3
Mode extension : CM (complete main)
Format settings, Endianness : Big
Codec ID : A_AC3
Duration : 1h 40mn
Bit rate mode : Constant
Bit rate : 448 Kbps
Channel(s) : 6 channels
Channel positions : Front: L C R, Side: L R, LFE
Sampling rate : 48.0 KHz
Compression mode : Lossy
Stream size : 324 MiB (6%)
Title : Dub
Language : Russian
Default : Yes
Forced : No
Audio #2
ID : 3
Format : AC-3
Format/Info : Audio Coding 3
Mode extension : CM (complete main)
Format settings, Endianness : Big
Codec ID : A_AC3
Duration : 1h 40mn
Bit rate mode : Constant
Bit rate : 448 Kbps
Channel(s) : 6 channels
Channel positions : Front: L C R, Side: L R, LFE
Sampling rate : 48.0 KHz
Compression mode : Lossy
Stream size : 324 MiB (6%)
Title : Eng
Language : English
Default : No
Forced : No
Text #1
ID : 4
Format : UTF-8
Codec ID : S_TEXT/UTF8
Codec ID/Info : UTF-8 Plain Text
Title : Rus full
Language : Russian
Default : No
Forced : No
Text #2
ID : 5
Format : UTF-8
Codec ID : S_TEXT/UTF8
Codec ID/Info : UTF-8 Plain Text
Title : Eng full
Language : English
Default : No
Forced : No
Menu
00:00:00.000 : :Chapter 01
00:05:00.000 : :Chapter 02
00:10:00.000 : :Chapter 03
00:15:00.000 : :Chapter 04
00:20:00.000 : :Chapter 05
00:25:00.000 : :Chapter 06
00:30:00.000 : :Chapter 07
00:35:00.000 : :Chapter 08
00:40:00.000 : :Chapter 09
00:45:00.000 : :Chapter 10
00:50:00.000 : :Chapter 11
00:55:00.000 : :Chapter 12
01:00:00.000 : :Chapter 13
01:05:00.000 : :Chapter 14
01:10:00.000 : :Chapter 15
01:15:00.000 : :Chapter 16
01:20:00.000 : :Chapter 17
01:25:00.000 : :Chapter 18
01:30:00.000 : :Chapter 19
01:35:00.000 : :Chapter 20
01:40:00.000 : :Chapter 21
[60-fps.org].t1764.torrent
Торрент: Зарегистрирован [ 2016-01-30 14:29 ] · A8C3CDAA9FD5DA670401A591D9A5D6727F07A561

Скачать .torrent

Скачать

29 KB

Статус: проверено
Скачан: 104 раз
Поблагодарили:
Размер: 5,61 GB
 


Последний раз редактировалось: bot (2016-01-31 13:06), всего редактировалось 3 раз(а)

[Цитировать]
envy

А почему бы не указать автора?)))

[Цитировать]
Kryl

5126А почему бы не указать автора?)))
Мы уже проходили это ....

[Цитировать]
dzubakr

5127
5126А почему бы не указать автора?)))
Мы уже проходили это ....
походу, я прогулял это урок Смеюсь

[Цитировать]
envy

5128походу, я прогулял это урок
))
не повторяйте ошибок.
не делайте для сайта ничего.
вас все ровно забудут...
Так же как и сообщение не допустят до просмотра.

[Цитировать]
Kryl

envy,
Не надо тролить , у тебя свое видение у меня свое , если скучно сходи пивка попей ...

[Цитировать]
drk4est

Спасибо!
 
Показать сообщения:    

Текущее время: 22-Фев 04:41

Часовой пояс: UTC + 3


Вы не можете начинать темы
Вы не можете отвечать на сообщения
Вы не можете редактировать свои сообщения
Вы не можете удалять свои сообщения
Вы не можете голосовать в опросах
Вы не можете прикреплять файлы к сообщениям
Вы можете скачивать файлы