[Цитировать]
Kryl

-Vanessa Paradis - Love Song (2013) Master 720p | 60 fps- -Информация о Клипе
Исполнитель: Vanessa Paradis
Название: Love Song
Год выхода: 2013
Продолжительность: 00:03:31-Файл
Кодек: MPEG4/ISO/AVC/ H.264
Формат: MKV
Качество: Master 720p
Видео : 1280 x 720 (1.778) at 60.000 fps 14.4 Мбит/сек
Аудио : AC-3 | 640 Кбит/сек | 48.0 KHz | 2.0 channels

MI

Видео
Идентификатор : 1
Формат : AVC
Формат/Информация : Advanced Video Codec
Профиль формата : Main@L4.1
Параметр CABAC формата : Да
Параметр ReFrames формата : 3 кадра
Идентификатор кодека : V_MPEG4/ISO/AVC
Продолжительность : 3 м. 30 с.
Битрейт : 14,4 Мбит/сек
Ширина : 1280 пикселей
Высота : 720 пикселей
Соотношение сторон : 16:9
Режим частоты кадров : Постоянный
Частота кадров : 60,000 кадров/сек
Стандарт вещания : PAL
Цветовое пространство : YUV
Субдискретизация насыщенности : 4:2:0
Битовая глубина : 8 бит
Тип развёртки : Прогрессивная
Бит/(Пиксели*Кадры) : 0.261
Размер потока : 363 Мбайт (94%)
Заголовок : www.60-fps.org
Язык : English
Default : Да
Forced : Нет
Основные цвета : BT.709
Характеристики трансфера : BT.709
Коэффициенты матрицы : BT.709
colour_range : Limited
Аудио
Идентификатор : 2
Формат : AC-3
Формат/Информация : Audio Coding 3
Расширение режима : CM (complete main)
Параметр Endianness формата : Big
Идентификатор кодека : A_AC3
Продолжительность : 3 м. 30 с.
Вид битрейта : Постоянный
Битрейт : 640 Кбит/сек
Каналы : 2 канала
Расположение каналов : Front: L R
Частота : 48,0 КГц
Битовая глубина : 16 бит
Метод сжатия : С потерями
Размер потока : 16,1 Мбайт (4%)
Заголовок : AC3
Язык : English
Default : Да
Forced : Нет

Релиз подготовлен 60 - fps



Последний раз редактировалось: Kryl (2015-08-29 09:30), всего редактировалось 1 раз

[Цитировать]
Тимур Артыков

Исполнитель: David Guetta? Админ поправьте:)

[Цитировать]
Тимур Артыков

Да и в названии тоже есть ошибки
 
Показать сообщения:    

Текущее время: 06-Дек 15:10

Часовой пояс: UTC + 3


Вы не можете начинать темы
Вы не можете отвечать на сообщения
Вы не можете редактировать свои сообщения
Вы не можете удалять свои сообщения
Вы не можете голосовать в опросах
Вы не можете прикреплять файлы к сообщениям
Вы не можете скачивать файлы