Rammstein (БЕЗ ЦЕНЗУРЫ)| WEBRip 1080p | 60 fps Britney Spears - Oops! I Did It Again Uncut (2009) HD 1080p | 60 fps Jennifer Lopez ft. Iggy Azalea - Booty (2014) Full HD 1080p | 60 fps Britney Spears - ...Baby One More Time (2009) Full HD 1080p | 60 fps BLACKPINK | WEBRip 1080p | 60 fps Lady Gaga - Poker Face (2009) Full HD 1080p | 60 fps Dan Balan - Chica Bomb (2010) WEBRip 1080p | 60 fps Sia - Chandelier (2014 ) Full HD 1080p | 60 fps
  1. Longevity:
    6 years 1 month
    Posts:
    2419
    Gender:
    Male
    -Vanessa Paradis - Love Song (2013) HD 720p | 60 fps- -Информация о Клипе
    Исполнитель: Vanessa Paradis
    Название: Love Song
    Год выхода: 2013
    Продолжительность: 00:03:31-Файл
    Кодек: MPEG4/ISO/AVC/ H.264
    Формат: MKV
    Качество: Master 720p
    Видео : 1280 x 720 (1.778) at 60.000 fps 14.4 Мбит/сек
    Аудио : AC-3 | 640 Кбит/сек | 48.0 KHz | 2.0 channels

    MI

    Видео
    Идентификатор : 1
    Формат : AVC
    Формат/Информация : Advanced Video Codec
    Профиль формата : Main@L4.1
    Параметр CABAC формата : Да
    Параметр ReFrames формата : 3 кадра
    Идентификатор кодека : V_MPEG4/ISO/AVC
    Продолжительность : 3 м. 30 с.
    Битрейт : 14,4 Мбит/сек
    Ширина : 1280 пикселей
    Высота : 720 пикселей
    Соотношение сторон : 16:9
    Режим частоты кадров : Постоянный
    Частота кадров : 60,000 кадров/сек
    Стандарт вещания : PAL
    Цветовое пространство : YUV
    Субдискретизация насыщенности : 4:2:0
    Битовая глубина : 8 бит
    Тип развёртки : Прогрессивная
    Бит/(Пиксели*Кадры) : 0.261
    Размер потока : 363 Мбайт (94%)
    Заголовок : www.60-fps.org
    Язык : English
    Default : Да
    Forced : Нет
    Основные цвета : BT.709
    Характеристики трансфера : BT.709
    Коэффициенты матрицы : BT.709
    colour_range : Limited
    Аудио
    Идентификатор : 2
    Формат : AC-3
    Формат/Информация : Audio Coding 3
    Расширение режима : CM (complete main)
    Параметр Endianness формата : Big
    Идентификатор кодека : A_AC3
    Продолжительность : 3 м. 30 с.
    Вид битрейта : Постоянный
    Битрейт : 640 Кбит/сек
    Каналы : 2 канала
    Расположение каналов : Front: L R
    Частота : 48,0 КГц
    Битовая глубина : 16 бит
    Метод сжатия : С потерями
    Размер потока : 16,1 Мбайт (4%)
    Заголовок : AC3
    Язык : English
    Default : Да
    Forced : Нет

    Release was prepared by 60 - fps



    Last edited by Kryl on 2015-08-29 09:30; edited 1 time in total
  2. Longevity:
    6 years
    Posts:
    111
    Gender:
    Male
    Исполнитель: David Guetta? Админ поправьте:)
    29-Aug-2015 04:20 (after 3 days)
  3. Longevity:
    6 years
    Posts:
    111
    Gender:
    Male
    Да и в названии тоже есть ошибки
    29-Aug-2015 04:20 (after 43 seconds)


You cannot post new topics in this forum
You cannot reply to topics in this forum
You cannot edit your posts in this forum
You cannot delete your posts in this forum
You cannot vote in polls in this forum
You cannot attach files in this forum
You cannot download files in this forum