«The One Name They All Fear»- Информация
Название: Ван Хельсинг
Оригинальное название: Van Helsing
Год выхода: 2004
Жанр: фэнтези, боевик, триллер, детектив, приключения
Режиссер: Стивен Соммерс
Сценарий: Стивен Соммерс
Продюсер: Боб Дюксэй, Стивен Соммерс, Сэм Мерсер
В ролях: Хью Джекман, Кейт Бэкинсейл, Ричард Роксбер, Елена Анайя, Дэвид Уэнэм, Шулер Хенсли, Кевин О'Коннор, Алан Армстронг, Сильвия Коллока, Робби Колтрейн, Джози Маран
--Сюжет:
Глубоко в Карпатах лежит таинственная страна Трансильвания — мир, в котором зло встречается на каждом шагу, мир, в котором опасность оживает с заходом солнца, и где монстры, живущие в глубине человеческих кошмаров, обретают форму. В этот мир попадает легендарный охотник на чудовищ Ван Хельсинг, рождённый на страницах романа «Дракула» Брэма Стокера.
В своей непрерывной битве против сил зла и за освобождение мира от порождений ада, Ван Хельсинг, по заданию секретного общества, отправляется в Трансильванию, чтобы скрестить оружие со смертельно опасным, наделённым неведомой силой графом Дракулой. На помощь ему внезапно приходит бесстрашная Анна Валери, поставившая целью избавить свою семью от векового проклятья, наложенного убитым вампиром.
- - Страна: США, Чехия
Продолжительность: 02:11:37

Файл
Кодек: MPEG4/ISO/AVC H.264
Формат: MKV
Качество: BDRip-AVC | 60 fps
Видео: 1024x552 (1.855) | 59.940 fps | 3.8 Мбит/сек
Аудио: AC3 | 5.1 | 48 kHz | 448 kbps | 16 bit | Дубляж |
Субтитры: русские (Полные), английские (Полные)

MedifInfo

Video
ID : 1
Format : AVC
Format/Info : Advanced Video Codec
Format profile : High@L4.1
Format settings, CABAC : Yes
Format settings, ReFrames : 4 frames
Codec ID : V_MPEG4/ISO/AVC
Duration : 2h 11mn
Bit rate : 3 840 Kbps
Width : 1 024 pixels
Height : 552 pixels
Display aspect ratio : 1.855
Frame rate : 59.940 fps
Color space : YUV
Chroma subsampling : 4:2:0
Bit depth : 8 bits
Scan type : Progressive
Bits/(Pixel*Frame) : 0.113
Stream size : 3.46 GiB (88%)
Writing library : x264 core 146 r2538 121396c
Encoding settings : cabac=1 / ref=3 / deblock=1:0:0 / analyse=0x3:0x113 / me=umh / subme=11 / psy=1 / psy_rd=1.00:0.10 / mixed_ref=1 / me_range=32 / chroma_me=1 / trellis=2 / 8x8dct=1 / cqm=0 / deadzone=21,11 / fast_pskip=0 / chroma_qp_offset=-3 / threads=12 / lookahead_threads=3 / sliced_threads=0 / nr=0 / decimate=1 / interlaced=0 / bluray_compat=0 / constrained_intra=0 / bframes=16 / b_pyramid=2 / b_adapt=2 / b_bias=0 / direct=3 / weightb=1 / open_gop=0 / weightp=2 / keyint=250 / keyint_min=25 / scenecut=40 / intra_refresh=0 / rc_lookahead=40 / rc=2pass / mbtree=1 / bitrate=3840 / ratetol=1.0 / qcomp=0.60 / qpmin=0 / qpmax=69 / qpstep=4 / cplxblur=20.0 / qblur=0.5 / vbv_maxrate=14000 / vbv_bufsize=14000 / nal_hrd=none / filler=0 / ip_ratio=1.40 / aq=1:1.00
Language : English
Default : Yes
Forced : No
Audio
ID : 2
Format : AC-3
Format/Info : Audio Coding 3
Mode extension : CM (complete main)
Codec ID : A_AC3
Duration : 2h 11mn
Bit rate mode : Constant
Bit rate : 448 Kbps
Channel(s) : 6 channels
Channel positions : Front: L C R, Side: L R, LFE
Sampling rate : 48.0 KHz
Bit depth : 16 bits
Compression mode : Lossy
Stream size : 422 MiB (10%)
Title : Дубляж
Language : Russian
Default : Yes
Forced : No
Text #1
ID : 3
Format : UTF-8
Codec ID : S_TEXT/UTF8
Codec ID/Info : UTF-8 Plain Text
Title : Полные
Language : Russian
Default : No
Forced : No
Text #2
ID : 4
Format : UTF-8
Codec ID : S_TEXT/UTF8
Codec ID/Info : UTF-8 Plain Text
Title : Полные
Language : English
Default : No
Forced : No
Menu
00:00:00.000 : :It's Alive
00:07:49.218 : :The Vatican's Avenger
00:13:42.613 : :The Order
00:20:14.503 : :Werewolf Hunters
00:23:12.724 : :Welcome to Transylvania
00:33:58.036 : :His Name Is Van Helsing
00:38:22.257 : :Looking for Answers
00:40:34.265 : :Curse of the Werewolf
00:48:41.793 : :Castle Frankenstein
00:53:18.862 : :Dracula's Children
01:02:07.055 : :Old Acquaintances
01:04:31.784 : :Failure
01:08:42.952 : :The Living Painting
01:09:54.982 : :The Frankenstein Monster
01:14:17.703 : :Hell on Wheels
01:18:55.313 : :Mark of the Wolf
01:23:57.866 : :The Monster's Ball
01:29:19.103 : :Van Helsing's Vow
01:31:11.340 : :The Door to Dracula
01:37:30.970 : :The Cure
01:40:34.528 : :Life for My Children
01:43:46.345 : :You Can Go When You're Dead
01:45:56.808 : :The Spawning
01:50:21.197 : :The Only Way
01:55:16.075 : :The Left Hand of God
01:57:08.396 : :Sacrifice
01:58:42.240 : :Reunion
02:02:01.188 : :End Titles
 
Показать сообщения:    

Текущее время: 27-Май 18:45

Часовой пояс: UTC + 3


Вы не можете начинать темы
Вы не можете отвечать на сообщения
Вы не можете редактировать свои сообщения
Вы не можете удалять свои сообщения
Вы не можете голосовать в опросах
Вы не можете прикреплять файлы к сообщениям
Вы не можете скачивать файлы