Тачки 3 / Cars 3 (2017) BDRip 1080p | 60 fps Тачки 3 / Cars 3 (2017) BDRip 720p | 60 fps Гадкий я 3 / Despicable Me 3 (2017) BDRip 720p | 60 fps Кингсглейв: Последняя фантазия XV / Kingsglaive: Final Fantasy XV (2016) BDRip 1080p | 60 fps Моана / Moana (2016) BDRip 720p | 60 fps Зверополис / Zootopia (2016) BDRip 1080p | 60 fps Фердинанд / Ferdinand (2017) BDRip 720p | 60 fps Гадкий я 3 / Despicable Me 3 (2017) BDRip 1080p | 60 fps
  1. Стаж:
    3 года 8 месяцев
    Сообщений:
    2334
    Пол:
    Мужской
    «The truth is, we cannot speak other than by our paintings» Информация
    Название: Ван Гог. С любовью, Винсент
    Оригинальное название: Loving Vincent
    Год выхода: 2017
    Жанр: драма, биография, мультфильм
    Режиссер: Дорота Кобела, Хью Уэлшман
    Сценарий: Дорота Кобела, Хью Уэлшман, Яцек Денел
    Продюсер: Айван Мактаггарт, Клаудия Блюмхубер, Шон М. Боббитт
    Персонажей озвучивали: Дуглас Бут, Сирша Ронан, Джером Флинн, Эйдан Тёрнер, Хелен МакКрори, Холли Эрл, Крис О`Дауд, Элинор Томлинсон, Робин Ходжес, Роберт Гулачик

    Сюжет:
    Первая в мире полнометражная анимация, каждый кадр которой – расписанное маслом полотно. 800 писем Ван Гога, более 120 его картин и их персонажей поведают о самых значимых людях и событиях в жизни художника, приведших к ее загадочному обрыву.

    Страна: Великобритания, Польша
    Продолжительность: 01:34:43

    Файл
    Кодек: H.264
    Формат: MKV
    Качество: BDRip 1080p | 60 fps
    Видео: 1480 x 1080 (1.370) | 59.940 fps | 20.0 Мбит/сек
    Аудио 01: AC3 | 5.1 | 48 kHz | 384 kbps | 16 bit | Дубляж - iTunes |
    Аудио 02: AC3 | 5.1 | 48 kHz | 448 kbps | 16 bit | english |
    Субтитры: английские

    MedifInfo

    Видео
    Идентификатор : 1
    Формат : AVC
    Формат/Информация : Advanced Video Codec
    Профиль формата : High@L4.1
    Параметр CABAC формата : Да
    Параметр ReFrames формата : 5 кадров
    Идентификатор кодека : V_MPEG4/ISO/AVC
    Продолжительность : 1 ч. 34 м.
    Битрейт : 20,0 Мбит/сек
    Ширина : 1480 пикселей
    Высота : 1080 пикселей
    Соотношение сторон : 1,370
    Режим частоты кадров : Постоянный
    Частота кадров : 59,880 кадров/сек
    Частота кадров в оригинале : 59,940 кадров/сек
    Цветовое пространство : YUV
    Субдискретизация насыщенности : 4:2:0
    Битовая глубина : 8 бит
    Тип развёртки : Прогрессивная
    Бит/(Пиксели*Кадры) : 0.209
    Размер потока : 12,9 Гбайт (94%)
    Заголовок : www.60-fps.org
    Библиотека кодирования : x264 core 152 r2851 ba24899
    Настройки программы : cabac=1 / ref=5 / deblock=1:-3:-3 / analyse=0x3:0x113 / me=hex / subme=8 / psy=1 / psy_rd=1.00:0.25 / mixed_ref=1 / me_range=16 / chroma_me=1 / trellis=2 / 8x8dct=1 / cqm=0 / deadzone=6,6 / fast_pskip=1 / chroma_qp_offset=-4 / threads=12 / lookahead_threads=2 / sliced_threads=0 / nr=0 / decimate=0 / interlaced=0 / bluray_compat=0 / constrained_intra=0 / bframes=3 / b_pyramid=2 / b_adapt=1 / b_bias=0 / direct=3 / weightb=1 / open_gop=0 / weightp=2 / keyint=599 / keyint_min=59 / scenecut=40 / intra_refresh=0 / rc_lookahead=50 / rc=2pass / mbtree=1 / bitrate=19999 / ratetol=1.0 / qcomp=0.80 / qpmin=0 / qpmax=69 / qpstep=4 / cplxblur=20.0 / qblur=0.5 / vbv_maxrate=62500 / vbv_bufsize=78125 / nal_hrd=none / filler=0 / ip_ratio=1.10 / aq=1:0.50
    Default : Да
    Forced : Нет
    Аудио #1
    Идентификатор : 2
    Формат : AC-3
    Формат/Информация : Audio Coding 3
    Расширение режима : CM (complete main)
    Параметр Endianness формата : Big
    Идентификатор кодека : A_AC3
    Продолжительность : 1 ч. 34 м.
    Вид битрейта : Постоянный
    Битрейт : 384 Кбит/сек
    Каналы : 6 каналов
    Расположение каналов : Front: L C R, Side: L R, LFE
    Частота : 48,0 КГц
    Битовая глубина : 16 бит
    Метод сжатия : С потерями
    Размер потока : 260 Мбайт (2%)
    Заголовок : Дубляж - iTunes
    Язык : Russian
    Default : Нет
    Forced : Нет
    DURATION : 01:34:43.264000000
    NUMBER_OF_FRAMES : 177602
    NUMBER_OF_BYTES : 272796524
    _STATISTICS_WRITING_APP : mkvmerge v7.6.0 ('Garden of Dreams') 32bit built on Feb 8 2015 12:51:39
    _STATISTICS_WRITING_DATE_UTC : 2018-01-19 21:35:13
    _STATISTICS_TAGS : BPS DURATION NUMBER_OF_FRAMES NUMBER_OF_BYTES
    Аудио #2
    Идентификатор : 3
    Формат : AC-3
    Формат/Информация : Audio Coding 3
    Расширение режима : CM (complete main)
    Параметр Endianness формата : Big
    Идентификатор кодека : A_AC3
    Продолжительность : 1 ч. 34 м.
    Вид битрейта : Постоянный
    Битрейт : 448 Кбит/сек
    Каналы : 6 каналов
    Расположение каналов : Front: L C R, Side: L R, LFE
    Частота : 48,0 КГц
    Битовая глубина : 16 бит
    Метод сжатия : С потерями
    Размер потока : 304 Мбайт (2%)
    Заголовок : english
    Язык : English
    Default : Нет
    Forced : Нет
    Текст
    Идентификатор : 4
    Формат : UTF-8
    Идентификатор кодека : S_TEXT/UTF8
    Идентификатор кодека/Информация : UTF-8 Plain Text
    Default : Нет
    Forced : Нет
    DURATION : 01:24:02.837000000
    NUMBER_OF_FRAMES : 1320
    NUMBER_OF_BYTES : 42019
    _STATISTICS_WRITING_APP : mkvmerge v7.6.0 ('Garden of Dreams') 32bit built on Feb 8 2015 12:51:39
    _STATISTICS_WRITING_DATE_UTC : 2018-01-19 21:35:13
    _STATISTICS_TAGS : BPS DURATION NUMBER_OF_FRAMES NUMBER_OF_BYTES
    Меню
    00:00:00.000 : :Chapter 01
    00:10:28.002 : :Chapter 02
    00:22:58.752 : :Chapter 03
    00:38:05.032 : :Chapter 04
    00:48:47.591 : :Chapter 05
    01:03:16.626 : :Chapter 06
    01:14:26.837 : :Chapter 07
    01:28:26.926 : :Chapter 08

    Релиз подготовлен 60 - fps

  2. Стаж:
    8 месяцев 16 дней
    Сообщений:
    1
    Пол:
    Не указан
    Большое спасибо. качество и звук на высшем уровне.
    25-Фев-2018 00:03 (спустя 1 месяц 5 дней)


Вы не можете начинать темы
Вы не можете отвечать на сообщения
Вы не можете редактировать свои сообщения
Вы не можете удалять свои сообщения
Вы не можете голосовать в опросах
Вы не можете прикреплять файлы к сообщениям
Вы не можете скачивать файлы