[Цитировать]
Kryl

Ва Банк / Vabank (1981) HDTVRip 720p | 60 fps- Информация о фильме
Название: Ва-банк
Оригинальное название: Vabank
Год выхода: 1981
Жанр: Криминальная комедия
Режиссер: Юлиуш Махульский
Сценарий: Юлиуш Махульский
В ролях: Ян Махульский, Леонард Петрашак, Витольд Пыркош, Эва Шикульска, Кшиштоф Кершновский, Здзислав Кузьняр, Юзеф Пара, Эльжбета Зайонцувна, Яцек Хмельник, Зофиа Харевич, Хенрик Биста, Януш Михаловский, Леон Немчик, Влодзимеж Мусял, Лена Вилчиньска, Рышард Котыс, Збигнев Гейгер, Здзисвав Вардейн
--О фильме:
Знаменитый медвежатник Квинто, выйдя из тюрьмы, решил завязать. Но известие о смерти друга круто меняет его планы. Он решает «взять» банк Крамера. И, конечно, берет. Изящно, весело и закручено!- - Страна: Польша
Продолжительность: 01:37:22
-- Файл
Кодек: MPEG4/ISO/AVC H.264
Формат: MKV
Качество: HDTVRip 720p
Видео: 1280 x 720 (1.778) | 60.000 fps | ~6.0 Мбит/сек
Аудио 1: AC3 | 2.0 | 48 kHz | 192 kbps | 16 bit | Профессиональный (дублированный) к/ст. Ленфильм со вставками многоголосого в отдельные фрагменты |
Субтитры:нет

MedifInfo

Видео
Идентификатор : 1
Формат : AVC
Формат/Информация : Advanced Video Codec
Профиль формата : High@L4.1
Параметр CABAC формата : Да
Параметр ReFrames формата : 8 кадров
Идентификатор кодека : V_MPEG4/ISO/AVC
Продолжительность : 1 ч. 44 м.
Битрейт : 5999 Кбит/сек
Ширина : 1280 пикселей
Высота : 720 пикселей
Соотношение сторон : 16:9
Режим частоты кадров : Постоянный
Частота кадров : 60,000 кадров/сек
Цветовое пространство : YUV
Субдискретизация насыщенности : 4:2:0
Битовая глубина : 8 бит
Тип развёртки : Прогрессивная
Бит/(Пиксели*Кадры) : 0.108
Размер потока : 4,30 Гбайт (95%)
Заголовок : www.60-fps.org
Библиотека кодирования : x264 core 146 r2538 121396c
Настройки программы : cabac=1 / ref=8 / deblock=1:-2:-2 / analyse=0x3:0x133 / me=esa / subme=9 / psy=1 / psy_rd=1.00:0.25 / mixed_ref=1 / me_range=32 / chroma_me=1 / trellis=2 / 8x8dct=1 / cqm=0 / deadzone=6,6 / fast_pskip=1 / chroma_qp_offset=-4 / threads=12 / lookahead_threads=1 / sliced_threads=0 / nr=0 / decimate=0 / interlaced=0 / bluray_compat=0 / constrained_intra=0 / bframes=3 / b_pyramid=2 / b_adapt=2 / b_bias=0 / direct=3 / weightb=1 / open_gop=0 / weightp=2 / keyint=600 / keyint_min=60 / scenecut=40 / intra_refresh=0 / rc_lookahead=60 / rc=2pass / mbtree=1 / bitrate=5999 / ratetol=1.0 / qcomp=0.80 / qpmin=0 / qpmax=69 / qpstep=4 / cplxblur=20.0 / qblur=0.5 / vbv_maxrate=62500 / vbv_bufsize=78125 / nal_hrd=none / filler=0 / ip_ratio=1.10 / aq=1:0.50
Default : Да
Forced : Нет
Аудио
Идентификатор : 2
Формат : AC-3
Формат/Информация : Audio Coding 3
Расширение режима : CM (complete main)
Параметр Endianness формата : Big
Идентификатор кодека : A_AC3
Продолжительность : 1 ч. 44 м.
Вид битрейта : Постоянный
Битрейт : 192 Кбит/сек
Каналы : 2 канала
Расположение каналов : Front: L R
Частота : 48,0 КГц
Битовая глубина : 16 бит
Метод сжатия : С потерями
Размер потока : 144 Мбайт (3%)
Заголовок : Rus (Советский дубляж, Добряков)
Язык : Russian
Default : Да
Forced : Нет

Релиз подготовлен 60 - fps

[Цитировать]
toolmakerr

Прекрасный фильм в прекрасном качестве! Спасибо.

[Цитировать]
Kryl

3115Прекрасный фильм в прекрасном качестве! Спасибо.
пожалуйста ...
 
Показать сообщения:    

Текущее время: 06-Дек 15:12

Часовой пояс: UTC + 3


Вы не можете начинать темы
Вы не можете отвечать на сообщения
Вы не можете редактировать свои сообщения
Вы не можете удалять свои сообщения
Вы не можете голосовать в опросах
Вы не можете прикреплять файлы к сообщениям
Вы не можете скачивать файлы