[Цитировать]
ZHz

Название: В поисках Немо
Оригинальное название: Finding Nemo
Год выпуска: 2003
Жанр: мультфильм, комедия, приключения, семейный
Продолжительность: 01:40:54
Перевод: Дубляж
Субтитры: Русские, Английские
Режиссер: Эндрю Стэнтон, Ли Анкрич-В ролях: Альберт Брукс, Эллен ДеДженерес, Александр Гулд, Уиллем Дефо, Эллисон Дженни, Джо Рэнфт, Джеффри Раш, Элизабет Перкинс, Эрик Бана, Эндрю Стэнтон--Описание: Среди прекрасных тропических морских стихий, в районе Большого барьерного рифа в уединении живет рыба-клоун по имени Марлин. Он растит своего единственного сыночка Немо. Океан и существующие в нем опасности очень страшат Марлина, и он как может ограждает сына от них, но молодой Немо, страдающий излишним любопытством, очень хочет разузнать побольше о таинственном рифе, рядом с которым они живут.
Когда Немо по иронии судьбы оказывается вдалеке от дома, да и еще сталкивается с угрозой стать обедом рыбы-танка, Марлин отправляется на поиски сына. Но Марлин, конечно же, понимает, что героический спасатель из него не получится и просит о помощи в поисках, Дори, королевскую синюю рыбу, которая хоть и страдает от того, что почти ничего не помнит, но добрее ее не отыскать во всем безбрежном океане!
Итак, наши герои отправляются в путешествие, в котором их подкарауливают многочисленные трудности и опасности…
--
Это СЭМПЛ, чувааак!
Кодек: AVC
Формат: MKV
Качество: BDRip 1080p
Видео: 1920x1080, 59.940 fps, 12.6 Mbps
Аудио №1:AC-3, 6 ch, 640 Kbps, 48000 Hz (Дубляж)
Аудио №2:AC-3, 6 ch, 640 Kbps, 48000 Hz (оригинал)
Навигация по главам: есть

х264

x264
: frame I:1936 Avg QP:14.51 size:194418
x264
: frame P:104904 Avg QP:17.37 size: 53765
x264
: frame B:256033 Avg QP:19.80 size: 14690

MediaInfo

General
Unique ID : 224772929782431461426936983931570359376 (0xA919B10DB7B25576B8C69F8B53080C50)
Complete name : J:\60FPS\Finding Nemo\Finding Nemo [60FPS by ZHz].mkv
Format : Matroska
Format version : Version 4 / Version 2
File size : 10.0 GiB
Duration : 1h 40mn
Overall bit rate : 14.2 Mbps
Movie name : В поисках Немо / Finding Nemo (2003)
Encoded date : UTC 2014-12-10 05:24:13
Writing application : mkvmerge v7.3.0 ('Nouages') 64bit built on Oct 22 2014 18:53:34
Writing library : libebml v1.3.0 + libmatroska v1.4.1
DURATION : 01:36:41.451000000
NUMBER_OF_FRAMES : 1876
NUMBER_OF_BYTES : 55509
_STATISTICS_WRITING_APP : mkvmerge v7.3.0 ('Nouages') 64bit built on Oct 22 2014 18:53:34
_STATISTICS_WRITING_DATE_UTC : 2014-12-10 05:24:13
_STATISTICS_TAGS : BPS DURATION NUMBER_OF_FRAMES NUMBER_OF_BYTES
Video
ID : 1
Format : AVC
Format/Info : Advanced Video Codec
Format profile : High@L4.2
Format settings, CABAC : Yes
Format settings, ReFrames : 4 frames
Codec ID : V_MPEG4/ISO/AVC
Duration : 1h 40mn
Bit rate : 12.6 Mbps
Width : 1 920 pixels
Height : 1 080 pixels
Display aspect ratio : 16:9
Frame rate mode : Constant
Frame rate : 59.880 fps
Original frame rate : 59.940 fps
Color space : YUV
Chroma subsampling : 4:2:0
Bit depth : 8 bits
Scan type : Progressive
Bits/(Pixel*Frame) : 0.102
Stream size : 8.91 GiB (89%)
Writing library : x264 core 130 r2273 b3065e6
Encoding settings : cabac=1 / ref=4 / deblock=1:-1:-1 / analyse=0x3:0x111 / me=esa / subme=7 / psy=1 / psy_rd=1.00:0.15 / mixed_ref=1 / me_range=4 / chroma_me=1 / trellis=2 / 8x8dct=1 / cqm=0 / deadzone=21,11 / fast_pskip=1 / chroma_qp_offset=-3 / threads=12 / lookahead_threads=3 / sliced_threads=0 / nr=0 / decimate=1 / interlaced=0 / bluray_compat=0 / constrained_intra=0 / bframes=4 / b_pyramid=2 / b_adapt=2 / b_bias=0 / direct=1 / weightb=1 / open_gop=0 / weightp=2 / keyint=250 / keyint_min=25 / scenecut=40 / intra_refresh=0 / rc_lookahead=50 / rc=crf / mbtree=1 / crf=16.0 / qcomp=0.60 / qpmin=0 / qpmax=69 / qpstep=4 / vbv_maxrate=50000 / vbv_bufsize=50000 / crf_max=0.0 / nal_hrd=none / ip_ratio=1.40 / aq=1:1.00
Language : English
Default : Yes
Forced : No
DURATION : 01:40:53.938000000
NUMBER_OF_FRAMES : 362873
NUMBER_OF_BYTES : 9777630443
_STATISTICS_WRITING_APP : mkvmerge v7.3.0 ('Nouages') 64bit built on Oct 22 2014 18:53:34
_STATISTICS_WRITING_DATE_UTC : 2014-12-10 05:24:13
_STATISTICS_TAGS : BPS DURATION NUMBER_OF_FRAMES NUMBER_OF_BYTES
Audio #1
ID : 2
Format : AC-3
Format/Info : Audio Coding 3
Mode extension : CM (complete main)
Format settings, Endianness : Big
Codec ID : A_AC3
Duration : 1h 40mn
Bit rate mode : Constant
Bit rate : 640 Kbps
Channel(s) : 6 channels
Channel positions : Front: L C R, Side: L R, LFE
Sampling rate : 48.0 KHz
Bit depth : 16 bits
Compression mode : Lossy
Stream size : 462 MiB (5%)
Title : Rus
Language : Russian
Default : Yes
Forced : No
Audio #2
ID : 3
Format : AC-3
Format/Info : Audio Coding 3
Mode extension : CM (complete main)
Format settings, Endianness : Big
Codec ID : A_AC3
Duration : 1h 40mn
Bit rate mode : Constant
Bit rate : 640 Kbps
Channel(s) : 6 channels
Channel positions : Front: L C R, Side: L R, LFE
Sampling rate : 48.0 KHz
Bit depth : 16 bits
Compression mode : Lossy
Stream size : 462 MiB (5%)
Title : Eng
Language : English
Default : No
Forced : No
Text #1
ID : 4
Format : UTF-8
Codec ID : S_TEXT/UTF8
Codec ID/Info : UTF-8 Plain Text
Title : Rus
Language : Russian
Default : No
Forced : No
Text #2
ID : 5
Format : UTF-8
Codec ID : S_TEXT/UTF8
Codec ID/Info : UTF-8 Plain Text
Title : Eng
Language : English
Default : No
Forced : No
Menu
00:00:00.000 : :Chapter 01
00:04:18.716 : :Chapter 02
00:05:35.668 : :Chapter 03
00:11:17.802 : :Chapter 04
00:12:16.277 : :Chapter 05
00:14:08.847 : :Chapter 06
00:16:29.279 : :Chapter 07
00:18:50.337 : :Chapter 08
00:25:31.988 : :Chapter 09
00:30:54.227 : :Chapter 10
00:33:01.646 : :Chapter 11
00:36:11.836 : :Chapter 12
00:40:19.166 : :Chapter 13
00:44:58.278 : :Chapter 14
00:48:12.389 : :Chapter 15
00:51:28.418 : :Chapter 16
00:56:07.030 : :Chapter 17
01:00:55.902 : :Chapter 18
01:05:20.666 : :Chapter 19
01:07:02.101 : :Chapter 20
01:08:30.147 : :Chapter 21
01:13:19.436 : :Chapter 22
01:14:15.200 : :Chapter 23
01:16:00.097 : :Chapter 24
01:18:41.299 : :Chapter 25
01:21:57.621 : :Chapter 26
01:24:29.481 : :Chapter 27
01:26:54.334 : :Chapter 28
01:29:26.611 : :Chapter 29
01:30:51.362 : :Chapter 30
01:32:42.974 : :Chapter 31
01:33:24.265 : :Chapter 32
01:40:53.714 : :Chapter 33

Скриншоты

[Цитировать]
Гость

Классный мультик.Раз 10 пересматривал раньше. :az:

[Цитировать]
Black Prince

ZHz, спасибо огромное
Мне очень понравилось как ты перекодировал,очень плавно,картинка шикарная.

[Цитировать]
andreyka357

Дайте скорости!!!!!Плиз!!!

[Цитировать]
danix

merci

[Цитировать]
DikEvdok

не раздает никто(

[Цитировать]
lockovac

ребятки дайте скорости

[Цитировать]
ENIGMA

Спасибо большое! Овации
Дайте скорости только Злой
 
Показать сообщения:    

Текущее время: 06-Дек 15:12

Часовой пояс: UTC + 3


Вы не можете начинать темы
Вы не можете отвечать на сообщения
Вы не можете редактировать свои сообщения
Вы не можете удалять свои сообщения
Вы не можете голосовать в опросах
Вы не можете прикреплять файлы к сообщениям
Вы не можете скачивать файлы