[Цитировать]
Kryl

«Вы ее не видели?»- Информация
Название: В поисках Дори
Оригинальное название: Finding Dory
Год выхода: 2016
Жанр: Мультфильм, комедия, приключения, семейный
Режиссер: Эндрю Стэнтон, Энгус МакЛэйн
Сценарий: Эндрю Стэнтон, Виктория Страуз, Боб Питерсон
Продюсер: Линдси Коллинз, Джон Лассетер, Боб Роут
Персонажей озвучивали: Эллен ДеДженерес, Альберт Брукс, Эд О’Нил, Кэйтлин Олсон, Хайден Роуленс, Тай Буррелл, Дайан Китон, Юджин Леви, Слоун Мюррэй, Идрис Эльба
--Сюжет:
Дори — синяя доброжелательная рыбка-хирург, страдающая провалами в памяти. Она упорно стремится избавиться от своего недуга и найти свою семью.- Страна: США
Продолжительность: 01:37:02

Файл
Кодек: MPEG4/ISO/AVC/H.264
Формат: MKV
Качество: BDRip 720p | 60 fps
Видео: 1280 x 720 (1.778) | 59.940 fps | 10.0 Мбит/сек
Аудио 1: AC3 | 5.1 | 48 kHz | 384 kbps | 16 bit | Дубляж - iTunes |
Аудио 2: AC3 | 2.0 | 48 kHz | 192 kbps | 16 bit | Украинский - iTunes |
Аудио 3: AC3 | 5.1 | 48 kHz | 640 kbps | 16 bit | ENG |
Субтитры: Русские, Eng

MedifInfo

Видео
Идентификатор : 1
Формат : AVC
Формат/Информация : Advanced Video Codec
Профиль формата : High@L4.1
Параметр CABAC формата : Да
Параметр ReFrames формата : 3 кадра
Идентификатор кодека : V_MPEG4/ISO/AVC
Продолжительность : 1 ч. 37 м.
Вид битрейта : Переменный
Битрейт : 9713 Кбит/сек
Максимальный битрейт : 10000 Кбит/сек
Ширина : 1280 пикселей
Высота : 720 пикселей
Соотношение сторон : 16:9
Режим частоты кадров : Постоянный
Частота кадров : 59,880 кадров/сек
Частота кадров в оригинале : 59,940 кадров/сек
Стандарт вещания : PAL
Цветовое пространство : YUV
Субдискретизация насыщенности : 4:2:0
Битовая глубина : 8 бит
Тип развёртки : Прогрессивная
Бит/(Пиксели*Кадры) : 0.176
Размер потока : 6,59 Гбайт (87%)
Заголовок : www.60-fps.org
Язык : English
Default : Да
Forced : Нет
Основные цвета : BT.709
Характеристики трансфера : BT.709
Коэффициенты матрицы : BT.709
colour_range : Limited
Аудио #1
Идентификатор : 2
Формат : AC-3
Формат/Информация : Audio Coding 3
Расширение режима : CM (complete main)
Параметр Endianness формата : Big
Идентификатор кодека : A_AC3
Продолжительность : 1 ч. 37 м.
Вид битрейта : Постоянный
Битрейт : 384 Кбит/сек
Каналы : 6 каналов
Расположение каналов : Front: L C R, Side: L R, LFE
Частота : 48,0 КГц
Битовая глубина : 16 бит
Метод сжатия : С потерями
Размер потока : 267 Мбайт (3%)
Заголовок : Дубляж - iTunes
Default : Да
Forced : Нет
Аудио #2
Идентификатор : 3
Формат : AC-3
Формат/Информация : Audio Coding 3
Расширение режима : CM (complete main)
Параметр Endianness формата : Big
Идентификатор кодека : A_AC3
Продолжительность : 1 ч. 37 м.
Вид битрейта : Постоянный
Битрейт : 192 Кбит/сек
Каналы : 2 канала
Расположение каналов : Front: L R
Частота : 48,0 КГц
Битовая глубина : 16 бит
Метод сжатия : С потерями
Размер потока : 133 Мбайт (2%)
Заголовок : Украинский Дубляж - iTunes
Default : Нет
Forced : Нет
DURATION : 01:35:07.993000000
NUMBER_OF_FRAMES : 1578
NUMBER_OF_BYTES : 60724
_STATISTICS_WRITING_APP : mkvmerge v7.6.0 ('Garden of Dreams') 32bit built on Feb 8 2015 12:51:39
_STATISTICS_WRITING_DATE_UTC : 2016-10-27 08:39:11
_STATISTICS_TAGS : BPS DURATION NUMBER_OF_FRAMES NUMBER_OF_BYTES
Аудио #3
Идентификатор : 4
Формат : AC-3
Формат/Информация : Audio Coding 3
Расширение режима : CM (complete main)
Параметр Endianness формата : Big
Идентификатор кодека : A_AC3
Продолжительность : 1 ч. 37 м.
Вид битрейта : Постоянный
Битрейт : 640 Кбит/сек
Каналы : 6 каналов
Расположение каналов : Front: L C R, Side: L R, LFE
Частота : 48,0 КГц
Битовая глубина : 16 бит
Метод сжатия : С потерями
Размер потока : 444 Мбайт (6%)
Заголовок : Eng
Язык : English
Default : Нет
Forced : Нет
DURATION : 01:35:21.006000000
NUMBER_OF_FRAMES : 1764
NUMBER_OF_BYTES : 66114
_STATISTICS_WRITING_APP : mkvmerge v7.6.0 ('Garden of Dreams') 32bit built on Feb 8 2015 12:51:39
_STATISTICS_WRITING_DATE_UTC : 2016-10-27 08:39:11
_STATISTICS_TAGS : BPS DURATION NUMBER_OF_FRAMES NUMBER_OF_BYTES
Текст #1
Идентификатор : 5
Формат : UTF-8
Идентификатор кодека : S_TEXT/UTF8
Идентификатор кодека/Информация : UTF-8 Plain Text
Заголовок : Full
Язык : Russian
Default : Нет
Forced : Нет
Текст #2
Идентификатор : 6
Формат : UTF-8
Идентификатор кодека : S_TEXT/UTF8
Идентификатор кодека/Информация : UTF-8 Plain Text
Заголовок : Full
Язык : English
Default : Нет
Forced : Нет
Текст #3
Идентификатор : 7
Формат : UTF-8
Идентификатор кодека : S_TEXT/UTF8
Идентификатор кодека/Информация : UTF-8 Plain Text
Заголовок : SDH
Язык : English
Default : Нет
Forced : Нет
Меню
00:00:00.000 : en:00:00:00.000
00:02:35.739 : en:00:02:35.739
00:06:50.243 : en:00:06:50.243
00:10:53.194 : en:00:10:53.194
00:13:33.187 : en:00:13:33.187
00:15:25.132 : en:00:15:25.132
00:17:03.314 : en:00:17:03.314
00:19:35.466 : en:00:19:35.466
00:21:35.294 : en:00:21:35.294
00:24:58.705 : en:00:24:58.705
00:27:08.543 : en:00:27:08.543
00:30:33.206 : en:00:30:33.206
00:35:00.265 : en:00:35:00.265
00:37:52.020 : en:00:37:52.020
00:40:17.999 : en:00:40:17.999
00:41:06.672 : en:00:41:06.672
00:42:30.423 : en:00:42:30.423
00:46:03.427 : en:00:46:03.427
00:48:41.710 : en:00:48:41.710
00:50:27.858 : en:00:50:27.858
00:55:06.678 : en:00:55:06.678
00:57:05.839 : en:00:57:05.839
01:00:41.346 : en:01:00:41.346
01:04:32.952 : en:01:04:32.952
01:10:36.816 : en:01:10:36.816
01:12:28.302 : en:01:12:28.302
01:14:09.862 : en:01:14:09.862
01:18:26.493 : en:01:18:26.493
01:26:49.329 : en:01:26:49.329

Релиз подготовлен 60 - fps

Топик был перенесен из форума Новинки Кино 60 FPS в форум Мультфильмы 60 FPS
Kryl
 
Показать сообщения:    

Текущее время: 26-Июн 18:40

Часовой пояс: UTC + 3


Вы не можете начинать темы
Вы не можете отвечать на сообщения
Вы не можете редактировать свои сообщения
Вы не можете удалять свои сообщения
Вы не можете голосовать в опросах
Вы не можете прикреплять файлы к сообщениям
Вы не можете скачивать файлы