1. Longevity:
    7 years
    Posts:
    2413
    Gender:
    Male
    «Hope is power»- Информация
    Название: В лесу
    Оригинальное название: Into the Forest
    Год выхода: 2015
    Жанр: фантастика, триллер, драма
    Режиссер: Патриция Розема
    Сценарий: Патриция Розема, Джин Хегланд
    Продюсер: Фрайзер Эш, Келли Буш, Джейсон Клот
    В ролях: Эллен Пейдж, Эван Рэйчел Вуд, Макс Мингелла, Каллум Кит Ренни, Майкл Эклунд, Венди Крюсон, Ронин Кара, Оуэн Кара, Лорни Кардинал
    --Сюжет:
    Недалёкое будущее. Сёстры Нэлл и Эва живут вместе с отцом в умном доме посреди леса. Жизнь людей очень сильно зависит от электричества, поэтому когда случается повсеместное отключение электроэнергии, жизнь человечества в корне меняется. Сначала семья едет в город за продуктами, но потом решает держаться подальше от людей. Им придётся научиться выживать без преимуществ цивилизации.- Страна: Канада
    Продолжительность: 01:41:36

    Файл
    Кодек: MPEG4/ISO/AVC/H.264
    Формат: MKV
    Качество: BDRip 720p | 60 fps
    Видео: 1280 x 694 (1.844) | 59.940 fps | 10.0 Мбит/сек
    Аудио: AC3 | 5.1 | 48 kHz | 640 kbps | 16 bit | ENG |
    Субтитры: Русские (full)

    MedifInfo

    Видео
    Идентификатор : 1
    Формат : AVC
    Формат/Информация : Advanced Video Codec
    Профиль формата : [email protected]
    Параметр CABAC формата : Да
    Параметр ReFrames формата : 3 кадра
    Идентификатор кодека : V_MPEG4/ISO/AVC
    Продолжительность : 1 ч. 41 м.
    Вид битрейта : Переменный
    Битрейт : 9651 Кбит/сек
    Максимальный битрейт : 10000 Кбит/сек
    Ширина : 1280 пикселей
    Высота : 694 пикселя
    Соотношение сторон : 1,85:1
    Режим частоты кадров : Постоянный
    Частота кадров : 59,880 кадров/сек
    Частота кадров в оригинале : 59,940 кадров/сек
    Стандарт вещания : PAL
    Цветовое пространство : YUV
    Субдискретизация насыщенности : 4:2:0
    Битовая глубина : 8 бит
    Тип развёртки : Прогрессивная
    Бит/(Пиксели*Кадры) : 0.181
    Размер потока : 6,85 Гбайт (92%)
    Заголовок : www.60-fps.org
    Язык : English
    Default : Да
    Forced : Нет
    Основные цвета : BT.709
    Характеристики трансфера : BT.709
    Коэффициенты матрицы : BT.709
    colour_range : Limited
    Аудио
    Идентификатор : 2
    Формат : AC-3
    Формат/Информация : Audio Coding 3
    Расширение режима : CM (complete main)
    Параметр Endianness формата : Big
    Идентификатор кодека : A_AC3
    Продолжительность : 1 ч. 41 м.
    Вид битрейта : Постоянный
    Битрейт : 640 Кбит/сек
    Каналы : 6 каналов
    Расположение каналов : Front: L C R, Side: L R, LFE
    Частота : 48,0 КГц
    Битовая глубина : 16 бит
    Метод сжатия : С потерями
    Размер потока : 465 Мбайт (6%)
    Заголовок : Eng
    Язык : English
    Default : Нет
    Forced : Нет
    Текст
    Идентификатор : 3
    Формат : UTF-8
    Идентификатор кодека : S_TEXT/UTF8
    Идентификатор кодека/Информация : UTF-8 Plain Text
    Язык : Russian
    Default : Нет
    Forced : Нет
    Меню
    00:00:00.000 : en:Chapter 01
    00:06:38.106 : en:Chapter 02
    00:12:11.564 : en:Chapter 03
    00:20:05.996 : en:Chapter 04
    00:26:49.899 : en:Chapter 05
    00:33:37.265 : en:Chapter 06
    00:39:45.091 : en:Chapter 07
    00:44:58.487 : en:Chapter 08
    00:51:36.134 : en:Chapter 09
    00:58:28.379 : en:Chapter 10
    01:05:47.860 : en:Chapter 11
    01:09:02.805 : en:Chapter 12
    01:15:28.857 : en:Chapter 13
    01:21:23.628 : en:Chapter 14
    01:25:58.153 : en:Chapter 15
    01:33:03.411 : en:Chapter 16
    Перевод: Субтитры

    Release was prepared by 60-fps.org

  2. Longevity:
    4 years 8 months
    Posts:
    4
    Gender:
    Male
    Доброго времени, Этому фильму можно поставить 3 балла из 10 и то только потому что я видал еще больше "УГ".
    Прочитайте описание и посмотрите первые 20 минут. С вас хватит Нет слов
    Задумка интересная, реализация дикий треш. Ужасно тупое поведение героев, совершенная безрукость, бестолковость, головотяпство. Тупые, неожиданные, сумасшедшие идеи. Пособие не потому как выжить, а потому как поскорее умереть.
    Абсолютное не знание даже примитивных вещей у героев и их тупейшее поведение, заставило просмотреть дальше этот фильм проматывая. (предсказуемость сюжета 5 баллов)
    В конце разваливающийся дом всего через какой то год просто добил.
    Конец фильма просто полнейший бред.
    Смотреть промотками и не вдаваясь в подробности. Нет
    14-May-2017 23:43 (after 29 days)


You cannot post new topics in this forum
You cannot reply to topics in this forum
You cannot edit your posts in this forum
You cannot delete your posts in this forum
You cannot vote in polls in this forum
You cannot attach files in this forum
You cannot download files in this forum