Планета Земля 2 / Planet Earth II (2016) BDRip 1080p | 60 fps Заколдованное королевство / Enchanted Kingdom (2013) BDRip 720p | 60fps Музыкальный камин / HDScape: Fireplace - Visions Of Tranquility (2008) BDRip 1080p | 60 fps Голубая бездна (Глубина) / Deep Blue (2003) BDRip 1080p | 60 fps Пейзажи времени / TimeScapes (2012) BDRip 1080p | 60 fps В краю муссонов / Wonders of the Monsoon (2014) BDRip 1080p | 60 fps Жизненные циклы / Life Cycles (2010) BDRip 720p | 60 fps Вызов бездне 3D / Deepsea Challenge 3D (2014) Full HD 1080p | 3D-Video | HSBS | 60 fps
  1. Стаж:
    4 года 2 месяца
    Сообщений:
    2433
    Пол:
    Мужской
    Информация
    Название: В краю муссонов
    Оригинальное название: Wonders of the Monsoon
    Год выхода: 2014
    Жанр: Документальный, природа, флора, фауна
    Режиссер: Hannah Hoare, Кэтрин Джэффс
    Продюсер: Нил Лэйрд, Кэти Пайн

    Сюжет:
    Как экзотику и очарование дикой природы, так и самобытность пёстрых культур Южной Азии породило одно из самых грандиозных явлений нашей планеты - безудержная стихия муссонов. Жизненные циклы животных и человека вращаются вокруг этого неистового, природного феномена, который даёт жизнь и её же отнимает. От Северных берегов Австралии к высочайшим пикам Гималаев, от продуваемых пустынь Северной Индии к влажным и тропическим лесам острова Борнео. Этот сериал станет для зрителя волнующим открытием, паломничеством в край, в котором господствуют муссоны.

    Список серий:
    01 - В ожидании дождя / Waiting for the Rains
    02 - Потоп / Deluge
    03 - Засуха / The Drought
    04 - Экстравагантные изгои / Strange castaways
    05 - Народы муссонов / People of the monsoon
    Страна: США
    Продолжительность: 5 серий по ~ 00:59:00

    Файл
    Кодек: H.264
    Формат: MKV
    Качество: BDRip 720p | 60 fps
    Видео: 1280 x 720 (1.778) | 60.000 fps | 10.0 Мбит/сек
    Аудио 01: AC3 | 2.0 | 48 kHz | 448 kbps | 16 bit | любительский - Ю. Онищенко (Logos71) |
    Аудио 02: AC3 | 2.0 | 48 kHz | 448 kbps | 16 bit | english |
    Субтитры: Русские (Ю. Онищенко), английские

    MedifInfo

    Видео
    Идентификатор : 1
    Формат : AVC
    Формат/Информация : Advanced Video Codec
    Профиль формата : High@L4.1
    Настройки формата : CABAC / 4 Ref Frames
    Параметр CABAC формата : Да
    Параметр RefFrames формата : 4 кадра
    Режим смешивания : Header stripping
    Идентификатор кодека : V_MPEG4/ISO/AVC
    Продолжительность : 59 м. 17 с.
    Вид битрейта : Переменный
    Битрейт : 9758 Кбит/сек
    Максимальный битрейт : 10000 Кбит/сек
    Ширина : 1280 пикселей
    Высота : 720 пикселей
    Соотношение сторон : 16:9
    Режим частоты кадров : Постоянный
    Частота кадров : 60,000 кадров/сек
    Стандарт вещания : NTSC
    Цветовое пространство : YUV
    Субдискретизация насыщенности : 4:2:0
    Битовая глубина : 8 бит
    Тип развёртки : Прогрессивная
    Бит/(Пиксели*Кадры) : 0.176
    Размер потока : 4,04 Гбайт (90%)
    Заголовок : www.60-fps.org
    Язык : English
    Default : Да
    Forced : Нет
    Цветовой диапазон : Limited
    Основные цвета : BT.709
    Характеристики трансфера : BT.709
    Коэффициенты матрицы : BT.709
    Аудио #1
    Идентификатор : 2
    Формат : AC-3
    Формат/Информация : Audio Coding 3
    Режим смешивания : Header stripping
    Идентификатор кодека : A_AC3
    Продолжительность : 59 м. 17 с.
    Вид битрейта : Постоянный
    Битрейт : 448 Кбит/сек
    Каналы : 2 канала
    Расположение каналов : Front: L R
    Частота : 48,0 КГц
    Частота кадров : 31,250 кадров/сек (1536 SPF)
    Битовая глубина : 16 бит
    Метод сжатия : С потерями
    Размер потока : 190 Мбайт (4%)
    Заголовок : любительский - Ю. Онищенко
    Язык : Russian
    ServiceKind/String : Complete Main
    Default : Да
    Forced : Нет
    Аудио #2
    Идентификатор : 3
    Формат : AC-3
    Формат/Информация : Audio Coding 3
    Режим смешивания : Header stripping
    Идентификатор кодека : A_AC3
    Продолжительность : 59 м. 17 с.
    Вид битрейта : Постоянный
    Битрейт : 448 Кбит/сек
    Каналы : 2 канала
    Расположение каналов : Front: L R
    Частота : 48,0 КГц
    Частота кадров : 31,250 кадров/сек (1536 SPF)
    Битовая глубина : 16 бит
    Метод сжатия : С потерями
    Размер потока : 190 Мбайт (4%)
    Заголовок : english
    Язык : English
    ServiceKind/String : Complete Main
    Default : Нет
    Forced : Нет
    Текст #1
    Идентификатор : 4
    Формат : UTF-8
    Идентификатор кодека : S_TEXT/UTF8
    Идентификатор кодека/Информация : UTF-8 Plain Text
    Язык : Russian
    Default : Нет
    Forced : Нет
    Текст #2
    Идентификатор : 5
    Формат : UTF-8
    Идентификатор кодека : S_TEXT/UTF8
    Идентификатор кодека/Информация : UTF-8 Plain Text
    Язык : English
    Default : Нет
    Forced : Нет

    Релиз подготовлен 60 - fps



Вы не можете начинать темы
Вы не можете отвечать на сообщения
Вы не можете редактировать свои сообщения
Вы не можете удалять свои сообщения
Вы не можете голосовать в опросах
Вы не можете прикреплять файлы к сообщениям
Вы не можете скачивать файлы