Планета Земля 2 / Planet Earth II (2016) BDRip 1080p | 60 fps Заколдованное королевство / Enchanted Kingdom (2013) BDRip 720p | 60fps Лунный свет 3: Дни вечности / Lichtmond 3: Days of Eternity (2014) BDRip 720p | 60fps Лунный свет 2: Вселенная света / Lichtmond 2: Universe of Light (2012) BDRip 720p | 60fps Лунный свет / Lichtmond (2010) BDRip 720p | 60fps Жизненные циклы / Life Cycles (2010) BDRip 720p | 60 fps Лунный свет: Путешествие / Lichtmond: The Journey (2016) BDRip 720p | 60fps Погоня за ледниками / Chasing Ice (2012) BDRip 720p | 60fps
  1. Longevity:
    5 years
    Posts:
    2417
    Gender:
    Male
    Информация
    Название: В краю муссонов
    Оригинальное название: Wonders of the Monsoon
    Год выхода: 2014
    Жанр: Документальный, природа, флора, фауна
    Режиссер: Hannah Hoare, Кэтрин Джэффс
    Продюсер: Нил Лэйрд, Кэти Пайн

    Сюжет:
    Как экзотику и очарование дикой природы, так и самобытность пёстрых культур Южной Азии породило одно из самых грандиозных явлений нашей планеты - безудержная стихия муссонов. Жизненные циклы животных и человека вращаются вокруг этого неистового, природного феномена, который даёт жизнь и её же отнимает. От Северных берегов Австралии к высочайшим пикам Гималаев, от продуваемых пустынь Северной Индии к влажным и тропическим лесам острова Борнео. Этот сериал станет для зрителя волнующим открытием, паломничеством в край, в котором господствуют муссоны.

    Список серий:
    01 - В ожидании дождя / Waiting for the Rains
    02 - Потоп / Deluge
    03 - Засуха / The Drought
    04 - Экстравагантные изгои / Strange castaways
    05 - Народы муссонов / People of the monsoon
    Страна: США
    Продолжительность: 5 серий по ~ 00:59:00

    Файл
    Кодек: H.264
    Формат: MKV
    Качество: BDRip 1080p | 60 fps
    Видео: 1920 x 1080 (1.778) | 60.000 fps | 30.0 Мбит/сек
    Аудио 01: AC3 | 2.0 | 48 kHz | 448 kbps | 16 bit | любительский - Ю. Онищенко (Logos71) |
    Аудио 02: AC3 | 2.0 | 48 kHz | 448 kbps | 16 bit | english |
    Субтитры: Русские (Ю. Онищенко), английские

    MedifInfo

    Видео
    Идентификатор : 1
    Формат : AVC
    Формат/Информация : Advanced Video Codec
    Профиль формата : High@L4.2
    Настройки формата : CABAC / 4 Ref Frames
    Параметр CABAC формата : Да
    Параметр RefFrames формата : 4 кадра
    Режим смешивания : Header stripping
    Идентификатор кодека : V_MPEG4/ISO/AVC
    Продолжительность : 59 м. 17 с.
    Вид битрейта : Переменный
    Битрейт : 29,3 Мбит/сек
    Максимальный битрейт : 30,0 Мбит/сек
    Ширина : 1920 пикселей
    Высота : 1080 пикселей
    Соотношение сторон : 16:9
    Режим частоты кадров : Постоянный
    Частота кадров : 60,000 кадров/сек
    Стандарт вещания : NTSC
    Цветовое пространство : YUV
    Субдискретизация насыщенности : 4:2:0
    Битовая глубина : 8 бит
    Тип развёртки : Прогрессивная
    Бит/(Пиксели*Кадры) : 0.236
    Размер потока : 12,1 Гбайт (95%)
    Заголовок : www.60-fps.org
    Язык : English
    Default : Да
    Forced : Нет
    Цветовой диапазон : Limited
    Основные цвета : BT.709
    Характеристики трансфера : BT.709
    Коэффициенты матрицы : BT.709
    Аудио #1
    Идентификатор : 2
    Формат : AC-3
    Формат/Информация : Audio Coding 3
    Режим смешивания : Header stripping
    Идентификатор кодека : A_AC3
    Продолжительность : 59 м. 17 с.
    Вид битрейта : Постоянный
    Битрейт : 448 Кбит/сек
    Каналы : 2 канала
    Расположение каналов : Front: L R
    Частота : 48,0 КГц
    Частота кадров : 31,250 кадров/сек (1536 SPF)
    Битовая глубина : 16 бит
    Метод сжатия : С потерями
    Размер потока : 190 Мбайт (1%)
    Заголовок : любительский - Ю. Онищенко
    Язык : Russian
    ServiceKind/String : Complete Main
    Default : Да
    Forced : Нет
    Аудио #2
    Идентификатор : 3
    Формат : AC-3
    Формат/Информация : Audio Coding 3
    Режим смешивания : Header stripping
    Идентификатор кодека : A_AC3
    Продолжительность : 59 м. 17 с.
    Вид битрейта : Постоянный
    Битрейт : 448 Кбит/сек
    Каналы : 2 канала
    Расположение каналов : Front: L R
    Частота : 48,0 КГц
    Частота кадров : 31,250 кадров/сек (1536 SPF)
    Битовая глубина : 16 бит
    Метод сжатия : С потерями
    Размер потока : 190 Мбайт (1%)
    Заголовок : english
    Язык : English
    ServiceKind/String : Complete Main
    Default : Нет
    Forced : Нет
    Текст #1
    Идентификатор : 4
    Формат : UTF-8
    Идентификатор кодека : S_TEXT/UTF8
    Идентификатор кодека/Информация : UTF-8 Plain Text
    Язык : Russian
    Default : Нет
    Forced : Нет
    Текст #2
    Идентификатор : 5
    Формат : UTF-8
    Идентификатор кодека : S_TEXT/UTF8
    Идентификатор кодека/Информация : UTF-8 Plain Text
    Язык : English
    Default : Нет
    Forced : Нет

    Release was prepared by 60 - fps



You cannot post new topics in this forum
You cannot reply to topics in this forum
You cannot edit your posts in this forum
You cannot delete your posts in this forum
You cannot vote in polls in this forum
You cannot attach files in this forum
You cannot download files in this forum