VIP

Трансформеры: Антология / Transformers: Antology (2007-2014) BDRip 1080p | 60 fps Тихоокеанский рубеж / Pacific Rim (2013) BDRip [720p] [60 FPS] Люси / Lucy (2014) BDRip 1080p | 60 fps Начало / Inception (2010) BDRip 720p | 60 fps Обитель зла: Пенталогия / Resident Evil: Pentalogy (2002-2012) BDRip-AVC | 60 fps Аватар / Avatar (2009) BDRip 1080p | 60 fps Интерстеллар / Interstellar (2014) BDRip 1080p | IMAX Edition | 60fps Терминатор: Антология / The Terminator: Antology (1984-2015) BDRip-AVC | 60 fps
  1. Longevity:
    6 years 8 months
    Posts:
    2414
    Gender:
    Male
    «Arriésgalo todo»- Информация
    Название: В конце туннеля
    Оригинальное название: Al final del túnel
    Год выхода: 2016
    Жанр: Триллер, криминал
    Режиссер: Родриго Гранде
    Сценарий: Родриго Гранде
    Продюсер: Херардо Эрреро, Аксель Кушевацки, Sofía Toro Pollicino
    В ролях: Леонардо Сбараглиа, Пабло Эчарри, Клара Лаго, Уолтер Донато, Серджо Феррейро, Хавьер Годино, Федерико Луппи
    --Сюжет:
    Банда грабителей пытается сорвать большой куш, построив подземный туннель под банком. Происходящее привлекает внимание Хоакина, парализованного человека в инвалидном кресле, проживающего в соседнем доме. Но он совсем не торопится разоблачить гангстеров, так как считает, что у него появился шанс.
    -Страна: Аргентина, Испания
    Продолжительность: 02:00:23

    Файл
    Кодек: MPEG4/ISO/AVC/H.264
    Формат: MKV
    Качество: BDRip 720p | 60 fps
    Видео: 1280 x 536 (2.388) | 60.000 fps | 10 Мбит/сек
    Аудио 1: AC3 | 5.1 | 48 kHz | 640 kbps | 16 bit | Авторский - Алексеев |
    Аудио 2: AC3 | 2.0 | 48 kHz | 224 kbps | 16 bit | Любительский многоголосый - MUZOBOZ |
    Аудио 3: AC3 | 5.1 | 48 kHz | 640 kbps | 16 bit | Испанский |
    Субтитры: Русские, английские

    MedifInfo

    Видео
    Идентификатор : 1
    Формат : AVC
    Формат/Информация : Advanced Video Codec
    Профиль формата : [email protected]
    Параметр CABAC формата : Да
    Параметр ReFrames формата : 5 кадров
    Идентификатор кодека : V_MPEG4/ISO/AVC
    Продолжительность : 2 ч. 0 м.
    Битрейт : 9999 Кбит/сек
    Ширина : 1280 пикселей
    Высота : 536 пикселей
    Соотношение сторон : 2,40:1
    Режим частоты кадров : Постоянный
    Частота кадров : 59,880 кадров/сек
    Частота кадров в оригинале : 59,940 кадров/сек
    Цветовое пространство : YUV
    Субдискретизация насыщенности : 4:2:0
    Битовая глубина : 8 бит
    Тип развёртки : Прогрессивная
    Бит/(Пиксели*Кадры) : 0.243
    Размер потока : 8,21 Гбайт (85%)
    Заголовок : www.60-fps.org
    Библиотека кодирования : x264 core 148 r2744 b97ae06
    Настройки программы : cabac=1 / ref=5 / deblock=1:-3:-3 / analyse=0x3:0x113 / me=umh / subme=8 / psy=1 / psy_rd=1.00:0.25 / mixed_ref=1 / me_range=32 / chroma_me=1 / trellis=1 / 8x8dct=1 / cqm=0 / deadzone=6,6 / fast_pskip=1 / chroma_qp_offset=-4 / threads=12 / lookahead_threads=2 / sliced_threads=0 / nr=0 / decimate=0 / interlaced=0 / bluray_compat=0 / constrained_intra=0 / bframes=3 / b_pyramid=2 / b_adapt=1 / b_bias=0 / direct=3 / weightb=1 / open_gop=0 / weightp=2 / keyint=599 / keyint_min=59 / scenecut=40 / intra_refresh=0 / rc_lookahead=50 / rc=2pass / mbtree=1 / bitrate=9999 / ratetol=1.0 / qcomp=0.80 / qpmin=0 / qpmax=69 / qpstep=4 / cplxblur=20.0 / qblur=0.5 / vbv_maxrate=62500 / vbv_bufsize=78125 / nal_hrd=none / filler=0 / ip_ratio=1.10 / aq=1:0.50
    Default : Да
    Forced : Нет
    Аудио #1
    Идентификатор : 2
    Формат : AC-3
    Формат/Информация : Audio Coding 3
    Расширение режима : CM (complete main)
    Параметр Endianness формата : Big
    Идентификатор кодека : A_AC3
    Продолжительность : 2 ч. 0 м.
    Вид битрейта : Постоянный
    Битрейт : 640 Кбит/сек
    Каналы : 6 каналов
    Расположение каналов : Front: L C R, Side: L R, LFE
    Частота : 48,0 КГц
    Битовая глубина : 16 бит
    Метод сжатия : С потерями
    Размер потока : 551 Мбайт (6%)
    Заголовок : Авторский - Алексеев
    Язык : Russian
    Default : Нет
    Forced : Нет
    Аудио #2
    Идентификатор : 3
    Формат : AC-3
    Формат/Информация : Audio Coding 3
    Расширение режима : CM (complete main)
    Параметр Endianness формата : Big
    Идентификатор кодека : A_AC3
    Продолжительность : 2 ч. 0 м.
    Вид битрейта : Постоянный
    Битрейт : 224 Кбит/сек
    Каналы : 2 канала
    Расположение каналов : Front: L R
    Частота : 48,0 КГц
    Битовая глубина : 16 бит
    Метод сжатия : С потерями
    Размер потока : 193 Мбайт (2%)
    Заголовок : Русский АСЗ 224 - ПМ (@[email protected])
    Язык : Russian
    Default : Нет
    Forced : Нет
    Аудио #3
    Идентификатор : 4
    Формат : AC-3
    Формат/Информация : Audio Coding 3
    Расширение режима : CM (complete main)
    Параметр Endianness формата : Big
    Идентификатор кодека : A_AC3
    Продолжительность : 2 ч. 0 м.
    Вид битрейта : Постоянный
    Битрейт : 640 Кбит/сек
    Каналы : 6 каналов
    Расположение каналов : Front: L C R, Side: L R, LFE
    Частота : 48,0 КГц
    Битовая глубина : 16 бит
    Метод сжатия : С потерями
    Размер потока : 551 Мбайт (6%)
    Заголовок : испанский
    Язык : Spanish
    Default : Нет
    Forced : Нет
    Текст #1
    Идентификатор : 5
    Формат : UTF-8
    Идентификатор кодека : S_TEXT/UTF8
    Идентификатор кодека/Информация : UTF-8 Plain Text
    Заголовок : Русские
    Язык : Russian
    Default : Нет
    Forced : Нет
    Текст #2
    Идентификатор : 6
    Формат : UTF-8
    Идентификатор кодека : S_TEXT/UTF8
    Идентификатор кодека/Информация : UTF-8 Plain Text
    Заголовок : Английские
    Язык : English
    Default : Нет
    Forced : Нет
    Меню
    00:00:00.000 : en:00:00:00.000
    00:09:06.296 : en:00:09:06.296
    00:17:22.750 : en:00:17:22.750
    00:24:26.131 : en:00:24:26.131
    00:30:44.843 : en:00:30:44.843
    00:39:58.896 : en:00:39:58.896
    00:45:13.711 : en:00:45:13.711
    00:52:21.930 : en:00:52:21.930
    01:04:19.522 : en:01:04:19.522
    01:11:23.779 : en:01:11:23.779
    01:25:56.902 : en:01:25:56.902
    01:34:39.257 : en:01:34:39.257
    01:48:56.697 : en:01:48:56.697
    01:56:15.886 : en:01:56:15.886

    Release was prepared by 60-fps.org

  2. Longevity:
    4 years 9 months
    Posts:
    1596
    Gender:
    Male
    Скорости... Ожидание
    06-Aug-2017 18:13 (after 4 hours)


You cannot post new topics in this forum
You cannot reply to topics in this forum
You cannot edit your posts in this forum
You cannot delete your posts in this forum
You cannot vote in polls in this forum
You cannot attach files in this forum
You cannot download files in this forum