Агент Ева / Ava (2020) BDRip 1080p | 60 fps Властелин колец: Трилогия / The Lord of the Rings: Trilogy (2001-2003) BDRip-AVC | Extended Cut | 60 fps Пятый элемент / The Fifth Element (1997) BDRip 1080p | 60 fps Форпост / The Outpost (2020) BDRip 1080p | 60 fps Охота / The Hunt (2020) BDRip 1080p | 60 fps Вивариум / Vivarium (2019) BDRip 720p | 60 fps Ультрафиолет / Ultraviolet (2006) BDRip 1080p | 60 fps Поезд смерти / D-Railed (2018) BDRip 1080p | 60 fps
  1. Longevity:
    6 years 4 months
    Posts:
    2414
    Gender:
    Male
    «Marilyn Monroe and her bosom companions»- Информация
    Название: В джазе только девушки
    Оригинальное название: Some Like It Hot
    Год выхода: 1959
    Жанр: мелодрама, комедия, криминал, приключения, музыка
    Режиссер: Билли Уайлдер
    Сценарий: Билли Уайлдер, И.А.Л. Даймонд, Роберт Тёрен
    Продюсер: Билли Уайлдер, И.А.Л. Даймонд, Доан Харрисон
    В ролях: Мэрилин Монро, Тони Кертис, Джек Леммон, Джордж Рафт, Пэт О’Брайен, Джо Э. Браун, Нехемия Персофф, Джоан Шоули, Билли Грэй, Джордж Э. Стоун
    --Сюжет:
    Когда чикагские музыканты Джо и Джерри случайно становятся свидетелями бандитской перестрелки, они в срочном порядке смываются на поезде во Флориду, прикинувшись женщинами. Теперь они — Джозефина и Дафна, новенькие и хорошенькие инструменталистки женского джаз — банда.
    До поры до времени их маскировка срабатывает. Но вскоре любвеобильная солистка «западает» на переодетую мужчиной Джозефину, престарелый плейбой влюбляется в Дафну, а босс мафии, разгадав тайну маскарада, решает срочно разделаться со свидетелями…
    - Страна: США
    Продолжительность: 02:01:32

    Файл
    Кодек: MPEG4/ISO/AVC/H.264
    Формат: MKV
    Качество: BDRip 720p | 60 fps
    Видео: 1280 x 720 (1.778) | 59.940 fps | 10.0 Мбит/сек
    Аудио 01: AC3 | 5.1 | 48 kHz | 640 kbps | 16 bit | Многоголосый закадровый - Blu-Ray CEE |
    Аудио 02: AC3 | 2.0 | 48 kHz | 192 kbps | 16 bit | Советский дубляж + вставки ОРТ на вырезанные советской цензурой фрагменты |
    Аудио 03: AC3 | 2.0 | 48 kHz | 192 kbps | 16 bit | Советский дубляж + вставки многоголосого на вырезанные советской цензурой фрагменты |
    Аудио 04: AC3 | 5.1 | 48 kHz | 448 kbps | 16 bit | Многоголосый закадровый |
    Аудио 05: AC3 | 5.1 | 48 kHz | 384 kbps | 16 bit | Многоголосый закадровый - Позитив Мультимедиа |
    Аудио 07: AC3 | 2.0 | 48 kHz | 192 kbps | 16 bit | Двухголосый закадровый - НТВ |
    Аудио 08: AC3 | 2.0 | 48 kHz | 192 kbps | 16 bit | Двухголосый закадровый - НТВ+ |
    Аудио 09: AC3 | 2.0 | 48 kHz | 192 kbps | 16 bit | Двухголосый закадровый |
    Аудио 10: AC3 | 5.1 | 48 kHz | 384 kbps | 16 bit | Одноголосый закадровый - Ю.Живов |
    Аудио 11: AC3 | 2.0 | 48 kHz | 192 kbps | 16 bit | Одноголосый закадровый - А.Михалев, поздний |
    Аудио 12: AC3 | 2.0 | 48 kHz | 192 kbps | 16 bit | Одноголосый закадровый - А.Михалев, ранний |
    Аудио 13: AC3 | 2.0 | 48 kHz | 192 kbps | 16 bit | Одноголосый закадровый - Владислав «Лектор» Огородников |
    Аудио 14: AC3 | 5.1 | 48 kHz | 640 kbps | 16 bit | ENG |
    Субтитры: Русские, Eng

    MedifInfo

    Видео
    Идентификатор : 1
    Формат : AVC
    Формат/Информация : Advanced Video Codec
    Профиль формата : [email protected]
    Параметр CABAC формата : Да
    Параметр ReFrames формата : 3 кадра
    Параметр GOP формата : M=3, N=72
    Идентификатор кодека : V_MPEG4/ISO/AVC
    Продолжительность : 2 ч. 1 м.
    Вид битрейта : Переменный
    Битрейт : 9665 Кбит/сек
    Максимальный битрейт : 10000 Кбит/сек
    Ширина : 1280 пикселей
    Высота : 720 пикселей
    Соотношение сторон : 16:9
    Режим частоты кадров : Постоянный
    Частота кадров : 59,880 кадров/сек
    Частота кадров в оригинале : 59,940 кадров/сек
    Стандарт вещания : PAL
    Цветовое пространство : YUV
    Субдискретизация насыщенности : 4:2:0
    Битовая глубина : 8 бит
    Тип развёртки : Прогрессивная
    Бит/(Пиксели*Кадры) : 0.175
    Размер потока : 8,20 Гбайт (69%)
    Заголовок : www.60-fps.org
    Язык : English
    Default : Да
    Forced : Нет
    Основные цвета : BT.709
    Характеристики трансфера : BT.709
    Коэффициенты матрицы : BT.709
    colour_range : Limited
    Аудио #1
    Идентификатор : 2
    Формат : AC-3
    Формат/Информация : Audio Coding 3
    Расширение режима : CM (complete main)
    Параметр Endianness формата : Big
    Идентификатор кодека : A_AC3
    Продолжительность : 2 ч. 1 м.
    Вид битрейта : Постоянный
    Битрейт : 640 Кбит/сек
    Каналы : 6 каналов
    Расположение каналов : Front: L C R, Side: L R, LFE
    Частота : 48,0 КГц
    Битовая глубина : 16 бит
    Метод сжатия : С потерями
    Размер потока : 556 Мбайт (5%)
    Заголовок : Многоголосый закадровый - Blu-Ray CEE
    Язык : Russian
    Default : Нет
    Forced : Нет
    Аудио #2
    Идентификатор : 3
    Формат : AC-3
    Формат/Информация : Audio Coding 3
    Расширение режима : CM (complete main)
    Параметр Endianness формата : Big
    Идентификатор кодека : A_AC3
    Продолжительность : 2 ч. 1 м.
    Вид битрейта : Постоянный
    Битрейт : 192 Кбит/сек
    Каналы : 2 канала
    Расположение каналов : Front: L R
    Частота : 48,0 КГц
    Битовая глубина : 16 бит
    Метод сжатия : С потерями
    Размер потока : 167 Мбайт (1%)
    Заголовок : Советский дубляж с вставками ОРТ на вырезанные советской цензурой фрагменты
    Язык : Russian
    Default : Нет
    Forced : Нет
    Аудио #3
    Идентификатор : 4
    Формат : AC-3
    Формат/Информация : Audio Coding 3
    Расширение режима : CM (complete main)
    Параметр Endianness формата : Big
    Идентификатор кодека : A_AC3
    Продолжительность : 2 ч. 1 м.
    Вид битрейта : Постоянный
    Битрейт : 192 Кбит/сек
    Каналы : 2 канала
    Расположение каналов : Front: L R
    Частота : 48,0 КГц
    Битовая глубина : 16 бит
    Метод сжатия : С потерями
    Размер потока : 167 Мбайт (1%)
    Заголовок : Советский дубляж с вставками многоголосого закадрового на вырезанные советской цензурой фрагменты
    Язык : Russian
    Default : Нет
    Forced : Нет
    Аудио #4
    Идентификатор : 5
    Формат : AC-3
    Формат/Информация : Audio Coding 3
    Расширение режима : CM (complete main)
    Параметр Endianness формата : Big
    Идентификатор кодека : A_AC3
    Продолжительность : 2 ч. 1 м.
    Вид битрейта : Постоянный
    Битрейт : 448 Кбит/сек
    Каналы : 6 каналов
    Расположение каналов : Front: L C R, Side: L R, LFE
    Частота : 48,0 КГц
    Битовая глубина : 16 бит
    Метод сжатия : С потерями
    Размер потока : 389 Мбайт (3%)
    Заголовок : Многоголосый закадровый
    Язык : Russian
    Default : Нет
    Forced : Нет
    Аудио #5
    Идентификатор : 6
    Формат : AC-3
    Формат/Информация : Audio Coding 3
    Расширение режима : CM (complete main)
    Параметр Endianness формата : Big
    Идентификатор кодека : A_AC3
    Продолжительность : 2 ч. 1 м.
    Вид битрейта : Постоянный
    Битрейт : 384 Кбит/сек
    Каналы : 6 каналов
    Расположение каналов : Front: L C R, Side: L R, LFE
    Частота : 48,0 КГц
    Битовая глубина : 16 бит
    Метод сжатия : С потерями
    Размер потока : 334 Мбайт (3%)
    Заголовок : Многоголосый закадровый - Позитив Мультимедиа
    Язык : Russian
    Default : Нет
    Forced : Нет
    Аудио #6
    Идентификатор : 7
    Формат : AC-3
    Формат/Информация : Audio Coding 3
    Расширение режима : CM (complete main)
    Параметр Endianness формата : Big
    Идентификатор кодека : A_AC3
    Продолжительность : 2 ч. 1 м.
    Вид битрейта : Постоянный
    Битрейт : 192 Кбит/сек
    Каналы : 2 канала
    Расположение каналов : Front: L R
    Частота : 48,0 КГц
    Битовая глубина : 16 бит
    Метод сжатия : С потерями
    Размер потока : 167 Мбайт (1%)
    Заголовок : Двухголосый закадровый - НТВ
    Язык : Russian
    Default : Нет
    Forced : Нет
    Аудио #7
    Идентификатор : 8
    Формат : AC-3
    Формат/Информация : Audio Coding 3
    Расширение режима : CM (complete main)
    Параметр Endianness формата : Big
    Идентификатор кодека : A_AC3
    Продолжительность : 2 ч. 1 м.
    Вид битрейта : Постоянный
    Битрейт : 192 Кбит/сек
    Каналы : 2 канала
    Расположение каналов : Front: L R
    Частота : 48,0 КГц
    Битовая глубина : 16 бит
    Метод сжатия : С потерями
    Размер потока : 167 Мбайт (1%)
    Заголовок : Двухголосый закадровый - НТВ+
    Язык : Russian
    Default : Нет
    Forced : Нет
    Аудио #8
    Идентификатор : 9
    Формат : AC-3
    Формат/Информация : Audio Coding 3
    Расширение режима : CM (complete main)
    Параметр Endianness формата : Big
    Идентификатор кодека : A_AC3
    Продолжительность : 2 ч. 1 м.
    Вид битрейта : Постоянный
    Битрейт : 192 Кбит/сек
    Каналы : 2 канала
    Расположение каналов : Front: L R
    Частота : 48,0 КГц
    Битовая глубина : 16 бит
    Метод сжатия : С потерями
    Размер потока : 167 Мбайт (1%)
    Заголовок : Двухголосый закадровый
    Язык : Russian
    Default : Нет
    Forced : Нет
    Аудио #9
    Идентификатор : 10
    Формат : AC-3
    Формат/Информация : Audio Coding 3
    Расширение режима : CM (complete main)
    Параметр Endianness формата : Big
    Идентификатор кодека : A_AC3
    Продолжительность : 2 ч. 1 м.
    Вид битрейта : Постоянный
    Битрейт : 384 Кбит/сек
    Каналы : 6 каналов
    Расположение каналов : Front: L C R, Side: L R, LFE
    Частота : 48,0 КГц
    Битовая глубина : 16 бит
    Метод сжатия : С потерями
    Размер потока : 334 Мбайт (3%)
    Заголовок : Одноголосый закадровый - Ю.Живов
    Язык : Russian
    Default : Нет
    Forced : Нет
    Аудио #10
    Идентификатор : 11
    Формат : AC-3
    Формат/Информация : Audio Coding 3
    Расширение режима : CM (complete main)
    Параметр Endianness формата : Big
    Идентификатор кодека : A_AC3
    Продолжительность : 2 ч. 1 м.
    Вид битрейта : Постоянный
    Битрейт : 192 Кбит/сек
    Каналы : 2 канала
    Расположение каналов : Front: L R
    Частота : 48,0 КГц
    Битовая глубина : 16 бит
    Метод сжатия : С потерями
    Размер потока : 167 Мбайт (1%)
    Заголовок : Одноголосый закадровый - А.Михалев, поздний
    Язык : Russian
    Default : Нет
    Forced : Нет
    Аудио #11
    Идентификатор : 12
    Формат : AC-3
    Формат/Информация : Audio Coding 3
    Расширение режима : CM (complete main)
    Параметр Endianness формата : Big
    Идентификатор кодека : A_AC3
    Продолжительность : 2 ч. 1 м.
    Вид битрейта : Постоянный
    Битрейт : 192 Кбит/сек
    Каналы : 2 канала
    Расположение каналов : Front: L R
    Частота : 48,0 КГц
    Битовая глубина : 16 бит
    Метод сжатия : С потерями
    Размер потока : 167 Мбайт (1%)
    Заголовок : Одноголосый закадровый - А.Михалев, ранний
    Язык : Russian
    Default : Нет
    Forced : Нет
    Аудио #12
    Идентификатор : 13
    Формат : AC-3
    Формат/Информация : Audio Coding 3
    Расширение режима : CM (complete main)
    Параметр Endianness формата : Big
    Идентификатор кодека : A_AC3
    Продолжительность : 2 ч. 1 м.
    Вид битрейта : Постоянный
    Битрейт : 192 Кбит/сек
    Каналы : 2 канала
    Расположение каналов : Front: L R
    Частота : 48,0 КГц
    Битовая глубина : 16 бит
    Метод сжатия : С потерями
    Размер потока : 167 Мбайт (1%)
    Заголовок : Одноголосый закадровый - Владислав «Лектор» Огородников
    Язык : Russian
    Default : Нет
    Forced : Нет
    Аудио #13
    Идентификатор : 14
    Формат : AC-3
    Формат/Информация : Audio Coding 3
    Расширение режима : CM (complete main)
    Параметр Endianness формата : Big
    Идентификатор кодека : A_AC3
    Продолжительность : 2 ч. 1 м.
    Вид битрейта : Постоянный
    Битрейт : 640 Кбит/сек
    Каналы : 6 каналов
    Расположение каналов : Front: L C R, Side: L R, LFE
    Частота : 48,0 КГц
    Битовая глубина : 16 бит
    Метод сжатия : С потерями
    Размер потока : 556 Мбайт (5%)
    Заголовок : ENG
    Язык : English
    Default : Нет
    Forced : Нет
    Текст #1
    Идентификатор : 15
    Формат : UTF-8
    Идентификатор кодека : S_TEXT/UTF8
    Идентификатор кодека/Информация : UTF-8 Plain Text
    Заголовок : Full
    Язык : Russian
    Default : Нет
    Forced : Нет
    Текст #2
    Идентификатор : 16
    Формат : UTF-8
    Идентификатор кодека : S_TEXT/UTF8
    Идентификатор кодека/Информация : UTF-8 Plain Text
    Заголовок : Full
    Язык : English
    Default : Нет
    Forced : Нет
    Текст #3
    Идентификатор : 17
    Формат : UTF-8
    Идентификатор кодека : S_TEXT/UTF8
    Идентификатор кодека/Информация : UTF-8 Plain Text
    Заголовок : Full SDH
    Язык : English
    Default : Нет
    Forced : Нет
    Меню
    00:00:00.000 : :00:00:00.000
    00:05:02.177 : :00:05:02.177
    00:11:56.174 : :00:11:56.174
    00:18:09.422 : :00:18:09.422
    00:23:59.897 : :00:23:59.897
    00:28:59.196 : :00:28:59.196
    00:34:49.796 : :00:34:49.796
    00:48:28.364 : :00:48:28.364
    00:57:17.643 : :00:57:17.643
    01:09:11.147 : :01:09:11.147
    01:17:25.349 : :01:17:25.349
    01:28:21.213 : :01:28:21.213
    01:34:24.117 : :01:34:24.117
    01:39:15.241 : :01:39:15.241
    01:48:53.110 : :01:48:53.110
    01:54:35.410 : :01:54:35.410

    Release was prepared by 60-fps.org

  2. Longevity:
    5 years 6 months
    Posts:
    149
    Gender:
    Male
    Огромное Спасибо за данный шедевр киноиндустрии!!! Улыбаюсь
    Овации Овации Овации
    13-Dec-2016 18:43 (after 1 hour 4 minutes)
  3. Longevity:
    6 years 4 months
    Posts:
    2414
    Gender:
    Male
    ENIGMA,
    Пожалуйста.
    13-Dec-2016 18:48 (after 5 minutes)
  4. Longevity:
    6 years 4 months
    Posts:
    33
    Gender:
    Male
    Пошла массовка Улыбаюсь
    14-Dec-2016 02:30 (after 7 hours)
  5. Longevity:
    5 years 3 months
    Posts:
    22
    Gender:
    Unknown
    Жаль не в цвете!
    15-Dec-2016 19:29 (after 1 day 16 hours)


You cannot post new topics in this forum
You cannot reply to topics in this forum
You cannot edit your posts in this forum
You cannot delete your posts in this forum
You cannot vote in polls in this forum
You cannot attach files in this forum
You cannot download files in this forum