«Rage unleashed»- Информация
Название: В аду
Оригинальное название: In Hell
Год выхода: 2003
Жанр: боевик, триллер, драма
Режиссер: Ринго Лам
Сценарий: Эрик Джэймс Виргетс, Хорхе Альварез
Продюсер: Дэнни Лернер, Джон Томпсон, Дэвид Варод
В ролях: Жан-Клод Ван Дамм, Лоуренс Тейлор, Ллойд Баттиста, Карлос Гомес, Манол Манолов, Крис Мойр, Билли Рик, Калойан Воденичаров, Алан Дэвидсон, Веселин Калановский, Иво Тончев, Хуан Фернандес, Райчо Василев, Милош Милицевич, Майкл Бэйли Смит, Хорхе Луис Абреу, Марни Элтон, Михаил Еленов, Юрий Савчев, Роберт ЛаСардо, Стефан Штерев, Валентин Ганев, Димитер Дойчинов, Асен Блатечки, Кларк Санчез, Атанас Сребрев, Пауло Тока, Калоян Леньков, Кирил Стаменов, Димитер Стефанов, Венцислав Кисёв, Иван Несторов, Петя Силянова, Димитар Дмитров, Дэвид Лейтч
--Сюжет:
Здесь сложно выжить, а остаться человеком почти невозможно. Жестоко расправившись с убийцей своей жены, американец Кайл, работающий в России, оказывается в легендарной тюрьме «Кровавая», куда боятся попасть даже самые крутые бандиты и бывалые рецидивисты. Здесь надзиратели — изощренные садисты, а начальство — продажное зверье, устраивающее кровавые бои между заключенными. Но, потеряв на чужой земле любовь, будущее и свободу, Кайл не намерен сгинуть в этой проклятой дыре. Он будет отчаянно бороться за свою жизнь, чтобы однажды выбраться из настоящего ада на Земле, где выживают только сильнейшие.
- - Страна: США
Продолжительность: 01:37:11

Файл
Кодек: MPEG4/ISO/AVC H.264
Формат: MKV
Качество: BDRip-AVC | 60 fps
Видео: 1024x552 (1.855) | 59.940 fps | 4.7 Мбит/сек
Аудио: AC3 | 5.1 | 48 kHz | 640 kbps | 16 bit | Профессиональный (многоголосый) |
Субтитры: русские (Полные), английские (Полные)

MedifInfo

Video
ID : 1
Format : AVC
Format/Info : Advanced Video Codec
Format profile : High@L4.1
Format settings, CABAC : Yes
Format settings, ReFrames : 4 frames
Codec ID : V_MPEG4/ISO/AVC
Duration : 1h 37mn
Bit rate : 4 700 Kbps
Width : 1 024 pixels
Height : 552 pixels
Display aspect ratio : 1.855
Frame rate : 60.000 fps
Color space : YUV
Chroma subsampling : 4:2:0
Bit depth : 8 bits
Scan type : Progressive
Bits/(Pixel*Frame) : 0.139
Stream size : 3.12 GiB (86%)
Writing library : x264 core 146 r2538 121396c
Encoding settings : cabac=1 / ref=3 / deblock=1:0:0 / analyse=0x3:0x113 / me=umh / subme=9 / psy=1 / psy_rd=1.00:0.10 / mixed_ref=1 / me_range=32 / chroma_me=1 / trellis=2 / 8x8dct=1 / cqm=0 / deadzone=21,11 / fast_pskip=0 / chroma_qp_offset=-3 / threads=12 / lookahead_threads=3 / sliced_threads=0 / nr=0 / decimate=1 / interlaced=0 / bluray_compat=0 / constrained_intra=0 / bframes=16 / b_pyramid=2 / b_adapt=2 / b_bias=0 / direct=3 / weightb=1 / open_gop=0 / weightp=2 / keyint=250 / keyint_min=25 / scenecut=40 / intra_refresh=0 / rc_lookahead=40 / rc=2pass / mbtree=1 / bitrate=4700 / ratetol=1.0 / qcomp=0.60 / qpmin=0 / qpmax=69 / qpstep=4 / cplxblur=20.0 / qblur=0.5 / vbv_maxrate=14000 / vbv_bufsize=14000 / nal_hrd=none / filler=0 / ip_ratio=1.40 / aq=1:1.00
Language : English
Default : Yes
Forced : No
Audio
ID : 2
Format : AC-3
Format/Info : Audio Coding 3
Mode extension : CM (complete main)
Codec ID : A_AC3
Duration : 1h 37mn
Bit rate mode : Constant
Bit rate : 640 Kbps
Channel(s) : 6 channels
Channel positions : Front: L C R, Side: L R, LFE
Sampling rate : 48.0 KHz
Bit depth : 16 bits
Compression mode : Lossy
Stream size : 445 MiB (12%)
Title : MVO R5
Language : Russian
Default : Yes
Forced : No
Text #1
ID : 3
Format : UTF-8
Codec ID : S_TEXT/UTF8
Codec ID/Info : UTF-8 Plain Text
Title : Полные
Language : Russian
Default : No
Forced : No
Text #2
ID : 4
Format : UTF-8
Codec ID : S_TEXT/UTF8
Codec ID/Info : UTF-8 Plain Text
Title : Полные
Language : English
Default : No
Forced : No
Menu
00:00:00.000 : en:00:00:00.000
00:04:54.708 : en:00:04:54.708
00:09:03.583 : en:00:09:03.583
00:14:49.833 : en:00:14:49.833
00:19:49.792 : en:00:19:49.792
00:25:13.250 : en:00:25:13.250
00:33:23.708 : en:00:33:23.708
00:39:20.208 : en:00:39:20.208
00:44:22.958 : en:00:44:22.958
00:49:07.750 : en:00:49:07.750
00:57:43.875 : en:00:57:43.875
01:06:57.333 : en:01:06:57.333
01:14:48.958 : en:01:14:48.958
01:18:58.708 : en:01:18:58.708
01:25:59.042 : en:01:25:59.042
01:33:39.417 : en:01:33:39.417
 
Показать сообщения:    

Текущее время: 06-Дек 15:11

Часовой пояс: UTC + 3


Вы не можете начинать темы
Вы не можете отвечать на сообщения
Вы не можете редактировать свои сообщения
Вы не можете удалять свои сообщения
Вы не можете голосовать в опросах
Вы не можете прикреплять файлы к сообщениям
Вы не можете скачивать файлы