Богемская рапсодия /Bohemian Rhapsody (2018) BDRip 1080p | 60 fps Властелин колец: Трилогия / The Lord of the Rings: Trilogy (2001-2003) BDRip-AVC | Extended Cut | 60 fps Апгрейд / Upgrade (2018) BDRip 1080p | 60 fps Альфа / Alpha (2018) BDRip 720p | 60 fps Проклятие монахини / The Nun (2018) BDRip 720p | 60 fps 22 мили / Mile 22 (2018) BDRip 720p | 60 fps Кристофер Робин / Christopher Robin (2018) BDRip 1080p | 60 fps Маугли / Mowgli (2018) BDRip 720p | 60 fps
  1. Longevity:
    4 years 7 months
    Posts:
    311
    Gender:
    Male
    Уцелевший / Lone Survivor (2013) BDRip 720p | 60fps«Live to Tell the Story»- Информация о фильме
    Название: Уцелевший
    Оригинальное название: Lone Survivor
    Год выхода: 2013
    Жанр: Военный, боевик, драма
    Режиссер: Питер Берг
    В ролях: Марк Уолберг, Тейлор Китч, Эмиль Хирш, Бен Фостер, Юсуф Азами, Али Сулиман, Эрик Бана, Александр Людвиг, Рич Тинг, Дэн Билзериан
    Описание фильма:
    Афганистан, 2005 год. Команда американских спецназовцев получает задание обезвредить известного лидера талибов Ахмада Шаха. Попав в ловушку, солдаты принимают неравный кровопролитный бой…
    Страна: США
    Студия: Hollywood Studios International, Weed Road Pictures
    Продолжительность: 02:01:21
    Перевод: Дублированный (Лицензия)
    Субтитры: Вшитые, отключаемые
    Язык субтитров: Русский (Full), Английский (Full)

    Дата мировой премьеры: 12 ноября 2013
    Дата российской премьеры: 20 февраля 2014, «Люксор»
    Дата выхода DVD релиза: 25 марта 2014, «Lizard Cinema Trade»
    Дата выхода Blu-Ray релиза: 25 марта 2014, «Lizard Cinema Trade»
    Файл
    Формат: MKV
    Кодек: MPEG-4 AVC/H.264
    Качество: BDRip 720p
    Видео: ~ 5807 Кбит/сек, 1280 x 544, 59.940 кадров/сек
    Аудио: AC3 5.1, 48.0 KHz, 640 Кбит/сек - Русский

    MediaInfo

    Общее
    Уникальный идентификатор : 244844506184346735489659852643976951948 (0xB833562C97738164B17652ED95BD388C)
    Полное имя : D:\Торренты\Lone Survivor 60fps.mkv
    Формат : Matroska
    Версия формата : Version 2
    Размер файла : 5,58 Гбайт
    Длительность : 2 ч. 1 м.
    Общий поток : 6578 Кбит/сек
    Название фильма : Lone Survivor (2013) BDRemux 1080p
    Дата кодирования : UTC 2015-02-05 14:55:37
    Программа кодирования : mkvmerge v6.9.1 ('Blue Panther') 64bit built on Apr 18 2014 18:23:38
    Библиотека кодирования : libebml v1.3.0 + libmatroska v1.4.1
    Видео
    Идентификатор : 1
    Формат : AVC
    Формат/Информация : Advanced Video Кодек
    Профиль формата : High@L4.1
    Параметр CABAC формата : Да
    Параметр ReFrames формата : 6 кадров
    Идентификатор кодека : V_MPEG4/ISO/AVC
    Длительность : 2 ч. 1 м.
    Битрейт : 5807 Кбит/сек
    Ширина : 1280 пикселей
    Высота : 544 пикселя
    Соотношение сторон : 2,35:1
    Режим частоты кадров : Постоянный
    Частота кадров : 59,880 кадров/сек
    Частота кадров в оригинале : 59,940 кадров/сек
    Цветовое пространство : YUV
    Субдискретизация насыщенности : 4:2:0
    Битовая глубина : 8 бит
    Тип развёртки : Прогрессивная
    Бит/(Пиксели*Кадры) : 0.139
    Размер потока : 4,92 Гбайт (88%)
    Заголовок : Release by mimok
    Библиотека кодирования : x264 core 130 r2273 b3065e6
    Настройки программы : cabac=1 / ref=6 / deblock=1:0:0 / analyse=0x3:0x133 / me=umh / subme=8 / psy=1 / psy_rd=1.00:0.15 / mixed_ref=1 / me_range=20 / chroma_me=1 / trellis=2 / 8x8dct=1 / cqm=0 / deadzone=21,11 / fast_pskip=0 / chroma_qp_offset=-3 / threads=6 / lookahead_threads=2 / sliced_threads=0 / nr=0 / decimate=0 / interlaced=0 / bluray_compat=0 / constrained_intra=0 / bframes=8 / b_pyramid=2 / b_adapt=2 / b_bias=0 / direct=1 / weightb=1 / open_gop=0 / weightp=2 / keyint=250 / keyint_min=25 / scenecut=40 / intra_refresh=0 / rc=crf / mbtree=0 / crf=18.0 / qcomp=0.63 / qpmin=10 / qpmax=51 / qpstep=4 / ip_ratio=1.40 / pb_ratio=1.30 / aq=1:1.20
    Default : Да
    Forced : Нет
    Аудио
    Идентификатор : 2
    Формат : AC-3
    Формат/Информация : Audio Coding 3
    Расширение режима : CM (complete main)
    Параметр Endianness формата : Big
    Идентификатор кодека : A_AC3
    Длительность : 2 ч. 1 м.
    Вид битрейта : Постоянный
    Битрейт : 640 Кбит/сек
    Каналы : 6 каналов
    Расположение каналов : Front: L C R, Side: L R, LFE
    Частота : 48,0 КГц
    Битовая глубина : 16 бит
    Метод сжатия : С потерями
    Размер потока : 555 Мбайт (10%)
    Заголовок : Dub
    Язык : Russian
    Default : Да
    Forced : Нет
    Текст #1
    Идентификатор : 3
    Формат : UTF-8
    Идентификатор кодека : S_TEXT/UTF8
    Идентификатор кодека/Информация : UTF-8 Plain Text
    Заголовок : Full
    Язык : Russian
    Default : Да
    Forced : Нет
    Текст #2
    Идентификатор : 4
    Формат : UTF-8
    Идентификатор кодека : S_TEXT/UTF8
    Идентификатор кодека/Информация : UTF-8 Plain Text
    Заголовок : Full
    Язык : English
    Default : Нет
    Forced : Нет

    Скринлист

    Скриншоты:

    Release was prepared by 60 - fps

  2. Longevity:
    4 years 5 months
    Posts:
    48
    Gender:
    Unknown
    класс
    15-Feb-2015 00:19 (after 4 days)
  3. Longevity:
    2 years 3 months
    Posts:
    8
    Gender:
    Male
    Супер фильм
    31-Jan-2017 23:27 (after 1 year 11 months)


You cannot post new topics in this forum
You cannot reply to topics in this forum
You cannot edit your posts in this forum
You cannot delete your posts in this forum
You cannot vote in polls in this forum
You cannot attach files in this forum
You cannot download files in this forum