[Цитировать]
Kryl

«1 ark. 50,000 animals. What could go wrong?»- Информация
Название: Упс… Ной уплыл!
Оригинальное название: Ooops! Noah is Gone
Год выхода: 2015
Жанр: Мультфильм, комедия, приключения
Режиссер: Тоби Генкель, Шон МакКормак
Сценарий: Ричи Конрой, Тоби Генкель, Марк Ходкинсон
Продюсер: Яна Бол, Эмели Кристианс, Жан Гуссен
Персонажей озвучивали: Дермот Магеннис, Каллум Малони, Тара Флинн, Пол Тайлак, Алан Стэнфорд, Эйлин Митен, Патрик Фицсимонс, Карла Бекер, Франциска Фриде
--Сюжет:
Грядет всемирный потоп, и старина Ной вот-вот отчалит. Самое время для зверей занять свои каюты. Но, увы, повезло не всем — кое-кто фейсконтроль не прошел. Теперь ему придется как следует постараться, чтобы перехитрить судьбу и заскочить на подножку уплывающего ковчега.- - Страна: Германия, Бельгия, Люксембург, Ирландия, США
Продолжительность: 01:26:28
-- Файл
Кодек: MPEG4/ISO/AVC H.264
Формат: MKV
Качество: BDRip 720p 60 fps
Видео: 1280 x 690 (1.855) | 60.000 fps | 12.6 Мбит/сек
Аудио 1: AC3 | 5.1 | 48 kHz | 384 kbps | 16 bit | Дублированный [iTunes] |
Аудио 2: AC3 | 5.1 | 48 kHz | 448 kbps | 16 bit | ENG |

MedifInfo

Видео
Идентификатор : 1
Формат : AVC
Формат/Информация : Advanced Video Codec
Профиль формата : High@L4.1
Параметр CABAC формата : Да
Параметр ReFrames формата : 3 кадра
Идентификатор кодека : V_MPEG4/ISO/AVC
Продолжительность : 1 ч. 26 м.
Вид битрейта : Переменный
Битрейт : 12,6 Мбит/сек
Максимальный битрейт : 13,0 Мбит/сек
Ширина : 1280 пикселей
Высота : 690 пикселей
Соотношение сторон : 1,85:1
Режим частоты кадров : Постоянный
Частота кадров : 60,000 кадров/сек
Стандарт вещания : PAL
Цветовое пространство : YUV
Субдискретизация насыщенности : 4:2:0
Битовая глубина : 8 бит
Тип развёртки : Прогрессивная
Бит/(Пиксели*Кадры) : 0.237
Размер потока : 7,60 Гбайт (92%)
Заголовок : www.60-fps.org
Язык : English
Default : Да
Forced : Нет
Основные цвета : BT.709
Характеристики трансфера : BT.709
Коэффициенты матрицы : BT.709
colour_range : Limited
Аудио #1
Идентификатор : 2
Формат : AC-3
Формат/Информация : Audio Coding 3
Расширение режима : CM (complete main)
Параметр Endianness формата : Big
Идентификатор кодека : A_AC3
Продолжительность : 1 ч. 26 м.
Вид битрейта : Постоянный
Битрейт : 384 Кбит/сек
Каналы : 6 каналов
Расположение каналов : Front: L C R, Side: L R, LFE
Частота : 48,0 КГц
Битовая глубина : 16 бит
Метод сжатия : С потерями
Размер потока : 237 Мбайт (3%)
Заголовок : iTunes
Язык : Russian
Default : Да
Forced : Нет
Аудио #2
Идентификатор : 3
Формат : AC-3
Формат/Информация : Audio Coding 3
Расширение режима : CM (complete main)
Параметр Endianness формата : Big
Идентификатор кодека : A_AC3
Продолжительность : 1 ч. 26 м.
Вид битрейта : Постоянный
Битрейт : 448 Кбит/сек
Каналы : 6 каналов
Расположение каналов : Front: L C R, Side: L R, LFE
Частота : 48,0 КГц
Битовая глубина : 16 бит
Метод сжатия : С потерями
Размер потока : 277 Мбайт (3%)
Заголовок : ENG
Язык : English
Default : Нет
Forced : Нет

Релиз подготовлен 60 - fps

[Цитировать]
mimok

Не мог в 1080 сделать )))

[Цитировать]
Kryl

3889Не мог в 1080 сделать )))
Не захотел ..... что то лень ждать двое суток ..
А ты же фулку не любишь , телек же не тянет ... :ag:

[Цитировать]
mimok

просто я тоже слепил 720 и в 60фпс :af: ну лан, зато у меня Open Matte версия :ag:

[Цитировать]
Kryl

3891просто я тоже слепил 720 и в 60фпс :af: ну лан, зато у меня Open Matte версия :ag:
Так надо согласовывать .... )))) https://60-fps.org/orders.php
Так заливай свою тоже , пускай выбор будет .

[Цитировать]
mimok

залью позже,время нет. Будет висеть а скачать народ не сможет

[Цитировать]
MichaelBFG

3893залью позже
а когда ?

[Цитировать]
mimok

3894
3893залью позже
а когда ?
так этот релиз скачайте, я только в выходной смогу.

[Цитировать]
MichaelBFG

качаю !подкиньте газку :az:

[Цитировать]
HANNIBAL_68

Спасибо качества на высоте
 
Показать сообщения:    

Текущее время: 05-Дек 01:26

Часовой пояс: UTC + 3


Вы не можете начинать темы
Вы не можете отвечать на сообщения
Вы не можете редактировать свои сообщения
Вы не можете удалять свои сообщения
Вы не можете голосовать в опросах
Вы не можете прикреплять файлы к сообщениям
Вы не можете скачивать файлы