[Цитировать]
mimok

Упс… Ной уплыл! / Ooops! Noah is Gone... (2015) BDRip 720p | 60fps | Open Matte«1 ark. 50,000 animals. What could go wrong?»- Информация о фильме
Название: Упс… Ной уплыл!
Оригинальное название: Ooops! Noah is Gone...
Год выхода: 2015
Жанр: Мультфильм, комедия, приключения
Режиссер: Тоби Генкель, Шон МакКормак
Продюсер: Яна Бол, Эмели Кристианс, Жан Гуссен
В ролях: Дермот Магеннис, Каллум Малони, Тара Флинн, Пол Тайлак, Алан Стэнфорд, Эйлин Митен, Патрик Фицсимонс, Карла Бекер, Франциска Фриде
Описание фильма:
Грядет всемирный потоп, и старина Ной вот-вот отчалит. Самое время для зверей занять свои каюты. Но, увы, повезло не всем — кое-кто фейсконтроль не прошел. Теперь ему придется как следует постараться, чтобы перехитрить судьбу и заскочить на подножку уплывающего ковчега.
Страна: Германия, Бельгия, Люксембург, Ирландия, США
Студия: Skyline Entertainment, Studio Rakete
Продолжительность: 01:26:28
Перевод: Дублированный (iTunes)
Субтитры: Отсутствуют

Дата мировой премьеры: 9 апреля 2015
Дата российской премьеры: 20 августа 2015, «UPI»
Файл
Формат: MKV
Кодек: MPEG-4 AVC/H.264
Качество: BDRip 720p
Видео: ~ 7509 Кбит/сек, 1280 x 720, 60.000 кадров/сек
Аудио: AC3 5.1, 48.0 KHz, 384 Кбит/сек - Русский

MediaInfo

Общее
Уникальный идентификатор : 182589460729013101042947456615633804452 (0x895D737464600C49B590351EC77A5CA4)
Полное имя : D:\Торренты\Ooops! Noah is Gone... 60fps.mkv
Формат : Matroska
Версия формата : Version 2
Размер файла : 4,86 Гбайт
Продолжительность : 1 ч. 26 м.
Общий поток : 8054 Кбит/сек
Название фильма : Ooops! Noah is Gone... (2015) Blu-ray Disc -BLUEBIRD
Дата кодирования : UTC 2015-10-11 18:01:37
Программа кодирования : mkvmerge v6.9.1 ('Blue Panther') 64bit built on Apr 18 2014 18:23:38
Библиотека кодирования : libebml v1.3.0 + libmatroska v1.4.1
Видео
Идентификатор : 1
Формат : AVC
Формат/Информация : Advanced Video Codec
Профиль формата : High@L4.1
Параметр CABAC формата : Да
Параметр ReFrames формата : 6 кадров
Идентификатор кодека : V_MPEG4/ISO/AVC
Продолжительность : 1 ч. 26 м.
Битрейт : 7509 Кбит/сек
Ширина : 1280 пикселей
Высота : 720 пикселей
Соотношение сторон : 16:9
Режим частоты кадров : Постоянный
Частота кадров : 60,000 кадров/сек
Цветовое пространство : YUV
Субдискретизация насыщенности : 4:2:0
Битовая глубина : 8 бит
Тип развёртки : Прогрессивная
Бит/(Пиксели*Кадры) : 0.136
Размер потока : 4,54 Гбайт (93%)
Заголовок : Release by mimok
Библиотека кодирования : x264 core 130 r2273 b3065e6
Настройки программы : cabac=1 / ref=6 / deblock=1:0:0 / analyse=0x3:0x133 / me=umh / subme=8 / psy=1 / psy_rd=1.00:0.15 / mixed_ref=1 / me_range=20 / chroma_me=1 / trellis=2 / 8x8dct=1 / cqm=0 / deadzone=21,11 / fast_pskip=0 / chroma_qp_offset=-3 / threads=6 / lookahead_threads=2 / sliced_threads=0 / nr=0 / decimate=0 / interlaced=0 / bluray_compat=0 / constrained_intra=0 / bframes=8 / b_pyramid=2 / b_adapt=2 / b_bias=0 / direct=1 / weightb=1 / open_gop=0 / weightp=2 / keyint=250 / keyint_min=25 / scenecut=40 / intra_refresh=0 / rc=crf / mbtree=0 / crf=18.0 / qcomp=0.63 / qpmin=10 / qpmax=51 / qpstep=4 / ip_ratio=1.40 / pb_ratio=1.30 / aq=1:1.20
Default : Да
Forced : Нет
Аудио
Идентификатор : 2
Формат : AC-3
Формат/Информация : Audio Coding 3
Расширение режима : CM (complete main)
Параметр Endianness формата : Big
Идентификатор кодека : A_AC3
Продолжительность : 1 ч. 26 м.
Вид битрейта : Постоянный
Битрейт : 384 Кбит/сек
Каналы : 6 каналов
Расположение каналов : Front: L C R, Side: L R, LFE
Частота : 48,0 КГц
Битовая глубина : 16 бит
Метод сжатия : С потерями
Размер потока : 238 Мбайт (5%)
Заголовок : Dub
Язык : Russian
Default : Да
Forced : Нет

Скринлист

Скриншоты:

Релиз подготовлен 60 - fps



Последний раз редактировалось: mimok (2015-10-18 16:33), всего редактировалось 1 раз

[Цитировать]
Тимур Артыков

Спасибо за маленький вес рипа! :ay: :ay: :ay:
 
Показать сообщения:    

Текущее время: 28-Май 00:13

Часовой пояс: UTC + 3


Вы не можете начинать темы
Вы не можете отвечать на сообщения
Вы не можете редактировать свои сообщения
Вы не можете удалять свои сообщения
Вы не можете голосовать в опросах
Вы не можете прикреплять файлы к сообщениям
Вы не можете скачивать файлы