Геошторм / Geostorm (2017) BDRip 1080p | 60 fps Геошторм / Geostorm (2017) BDRip 720p | 60 fps Бегущий по лезвию 2049 / Blade Runner 2049 (2017) BDRip 720p | 60 fps Наемник / American Assassin (2017) BDRip 1080p | 60 fps Между нами горы / The Mountain Between Us (2017) BDRip 1080p | 60 fps Бегущий по лезвию 2049 / Blade Runner 2049 (2017) BDRip 1080p | 60 fps Коматозники / Flatliners (2017) BDRip 720p | 60 fps Пила 8 / Jigsaw (2017) BDRip 1080p | 60 fps Салют-7 (2017) BDRip 720p | 60 fps ЛЕГО Ниндзяго Фильм / The LEGO Ninjago Movie (2017) BDRip 1080p | 60 fps ЛЕГО Ниндзяго Фильм / The LEGO Ninjago Movie (2017) BDRip 720p | 60 fps Пила 8 / Jigsaw (2017) BDRip 720p | 60 fps
  1. Стаж:
    3 года 3 месяца
    Сообщений:
    2174
    Пол:
    Мужской
     
    «Тайное всегда становится явным» Информация
    Название: Уотергейт. Крушение Белого дома
    Оригинальное название: Mark Felt: The Man Who Brought Down the White House
    Год выхода: 2017
    Жанр: Триллер, драма, биография, история
    Режиссер: Питер Ландесман
    Сценарий: Питер Ландесман, Mark Felt, John D. O'Connor
    Продюсер: Марк Бутан, Гари Гоэцман, Том Хэнкс
    В ролях: Лиам Нисон, Дайан Лэйн, Мартон Чокаш, Тони Голдуин, Айк Баринхолц, Джош Лукас, Венди МакЛендон-Кови, Кейт Уолш, Брайан Д Арси Джеймс, Майка Монро

    Сюжет:
    Фильм о главном звене самого громкого скандала ХХ века «Уотергейт», который привел к преждевременной отставке президента Ричарда Никсона. Личность человека, передававшего прессе обличительную информацию на главу государства, долгое время была окутана тайной и установлена лишь спустя 30 лет после его собственного признания. Шокирующая невероятная история, основанная на реальных событиях, о жизни блестящего и бескомпромиссного Заместителя Начальника ФБР Марка Фелта, который пожертвовал всем — своей семьей, своей карьерой и своей свободой, чтобы мир узнал правду.

    Страна: США
    Продолжительность: 01:42:57

    Файл
    Кодек: H.264 | High@L4.1
    Формат: MKV
    Качество: BDRip 720p | 60 fps
    Видео: 1280 x 640 (2.000) | 59.940 fps | 10.0 Мбит/сек
    Аудио 01: AC3 | 5.1 | 48 kHz | 384 kbps | 16 bit | Многоголосый - iTunes |
    Аудио 02: AC3 | 5.1 | 48 kHz | 448 kbps | 16 bit | english |
    Субтитры: английские

    MedifInfo

    Видео
    Идентификатор : 1
    Формат : AVC
    Формат/Информация : Advanced Video Codec
    Профиль формата : High@L4.1
    Параметр CABAC формата : Да
    Параметр ReFrames формата : 5 кадров
    Идентификатор кодека : V_MPEG4/ISO/AVC
    Продолжительность : 1 ч. 42 м.
    Битрейт : 9999 Кбит/сек
    Ширина : 1280 пикселей
    Высота : 640 пикселей
    Соотношение сторон : 2,000
    Режим частоты кадров : Постоянный
    Частота кадров : 59,880 кадров/сек
    Частота кадров в оригинале : 59,940 кадров/сек
    Цветовое пространство : YUV
    Субдискретизация насыщенности : 4:2:0
    Битовая глубина : 8 бит
    Тип развёртки : Прогрессивная
    Бит/(Пиксели*Кадры) : 0.204
    Размер потока : 7,04 Гбайт (90%)
    Заголовок : www.60-fps.org
    Библиотека кодирования : x264 core 152 r2851 ba24899
    Настройки программы : cabac=1 / ref=5 / deblock=1:-3:-3 / analyse=0x3:0x113 / me=hex / subme=8 / psy=1 / psy_rd=1.00:0.25 / mixed_ref=1 / me_range=16 / chroma_me=1 / trellis=2 / 8x8dct=1 / cqm=0 / deadzone=6,6 / fast_pskip=1 / chroma_qp_offset=-4 / threads=12 / lookahead_threads=2 / sliced_threads=0 / nr=0 / decimate=0 / interlaced=0 / bluray_compat=0 / constrained_intra=0 / bframes=3 / b_pyramid=2 / b_adapt=1 / b_bias=0 / direct=3 / weightb=1 / open_gop=0 / weightp=2 / keyint=599 / keyint_min=59 / scenecut=40 / intra_refresh=0 / rc_lookahead=50 / rc=2pass / mbtree=1 / bitrate=9999 / ratetol=1.0 / qcomp=0.80 / qpmin=0 / qpmax=69 / qpstep=4 / cplxblur=20.0 / qblur=0.5 / vbv_maxrate=62500 / vbv_bufsize=78125 / nal_hrd=none / filler=0 / ip_ratio=1.10 / aq=1:0.50
    Default : Да
    Forced : Нет
    Аудио #1
    Идентификатор : 2
    Формат : AC-3
    Формат/Информация : Audio Coding 3
    Расширение режима : CM (complete main)
    Параметр Endianness формата : Big
    Идентификатор кодека : A_AC3
    Продолжительность : 1 ч. 42 м.
    Вид битрейта : Постоянный
    Битрейт : 384 Кбит/сек
    Каналы : 6 каналов
    Расположение каналов : Front: L C R, Side: L R, LFE
    Частота : 48,0 КГц
    Битовая глубина : 16 бит
    Метод сжатия : С потерями
    Размер потока : 283 Мбайт (4%)
    Заголовок : Многоголосый - iTunes
    Язык : Russian
    Default : Да
    Forced : Нет
    Аудио #2
    Идентификатор : 3
    Формат : AC-3
    Формат/Информация : Audio Coding 3
    Расширение режима : CM (complete main)
    Параметр Endianness формата : Big
    Идентификатор кодека : A_AC3
    Продолжительность : 1 ч. 42 м.
    Вид битрейта : Постоянный
    Битрейт : 448 Кбит/сек
    Каналы : 6 каналов
    Расположение каналов : Front: L C R, Side: L R, LFE
    Частота : 48,0 КГц
    Битовая глубина : 16 бит
    Метод сжатия : С потерями
    Размер потока : 330 Мбайт (4%)
    Заголовок : english
    Язык : English
    Default : Нет
    Forced : Нет
    Текст
    Идентификатор : 4
    Формат : UTF-8
    Идентификатор кодека : S_TEXT/UTF8
    Идентификатор кодека/Информация : UTF-8 Plain Text
    Язык : English
    Default : Нет
    Forced : Нет
    Меню
    00:00:00.000 : en:Chapter 1
    00:08:38.226 : en:Chapter 2
    00:15:54.078 : en:Chapter 3
    00:21:22.823 : en:Chapter 4
    00:33:01.396 : en:Chapter 5
    00:36:17.509 : en:Chapter 6
    00:47:14.040 : en:Chapter 7
    00:56:39.271 : en:Chapter 8
    01:03:02.946 : en:Chapter 9
    01:10:16.421 : en:Chapter 10
    01:13:50.551 : en:Chapter 11
    01:17:03.828 : en:Chapter 12
    01:21:09.239 : en:Chapter 13
    01:26:26.306 : en:Chapter 14
    01:29:31.032 : en:Chapter 15
    01:35:10.580 : en:Chapter 16

    Релиз подготовлен 60 - fps



Вы не можете начинать темы
Вы не можете отвечать на сообщения
Вы не можете редактировать свои сообщения
Вы не можете удалять свои сообщения
Вы не можете голосовать в опросах
Вы не можете прикреплять файлы к сообщениям
Вы не можете скачивать файлы