Универсальный солдат

-Название: Универсальный солдат
Оригинальное название: Universal Soldier
Год выпуска: 1992
Страна: США
Жанр: фантастика, боевик, драма
Продолжительность: 01:44:06
Перевод: Дубляж
Субтитры: русские (Полные), английские (Полные)-Режиссер: Роланд Эммерих / Roland Emmerich-В ролях: Жан-Клод Ван Дамм (Luc Deveraux / GR44), Дольф Лундгрен (Andrew Scott / GR13), Элли Уокер (Veronica Roberts), Эд О’Росс (Colonel Perry), Джерри Орбак (Dr. Christopher Gregor), Леон Риппи (Woodward), Тико Уэллс (Garth), Ральф Мёллер (GR76), Роберт Требор (Motel Owner), Джин Дэвис (Lieutenant), Дрю Снайдер (Charles), Том ’Тайни’ Листер мл. (GR55)-Описание:
Вьетнам, 1969 год, первая стычка двух американских солдат - Люка и Скотта: Люк не может стрелять в безоружных людей, Скотт же готов убивать и убивать с нечеловечески-яростной жестокостью, о которой свидетельствует ожерелье из ушей, отрезанных им у вьетнамцев. Спустя годы Люк и Скотт вновь оказываются в одном отряде - спецподразделении «универсальных солдат», которых бросают на выполнение самых опасных заданий (например, на ликвидацию террористов).
«Универсального солдата» можно попытаться убить, но он будет подниматься вновь и вновь, и если понадобится, то ученые, работающие над сверхсекретным военным проектом, в специальной лаборатории займутся оживлением серьезно пострадавшего «универсала». Однако, даже зная об этом, Скотт с упорством маньяка будет преследовать Люка, чтобы сойтись с ним в решающем поединке не на жизнь, а на смерть...-Рейтинг

imdb.com: 5.90 (61 656)
MPAA: R - Лицам до 17 лет обязательно присутствие взрослого-Автор рипа:Tiberiumsun69
-Качество: BDRip 1080p / 60 FPS
Формат: MKV
Видео кодек: AVC
Аудио кодек:AC3
Видео: AVC, 1920x816 (2.35:1), 14000 kbps, 59,940 fps, 0,149 bpp
Аудио №1: русский / AC3 / 2.0 / 48 kHz / 192 kbps / 16 bit |Дубляж + Многоголосый, закадровый на вставки|
Аудио №2: русский / AC3 / 5.1 / 48 kHz / 448 kbps / 16 bit |Многоголосый, закадровый AuraFilm|
Аудио №3: русский / AC3 / 2.0 / 48 kHz / 192 kbps / 16 bit |Многоголосый, закадровый СТС|
Аудио №4: русский / AC3 / 5.1 / 48 kHz / 384 kbps / 16 bit |Многоголосый, закадровый Твистер|
Аудио №5: английский / AC3 / 5.1 / 48 kHz / 640 kbps / 16 bit
Навигация по главам: есть- -

MI

General
Unique ID : 209170448310134934237504305670495832529 (0x9D5CC35330D0D3CF90570459457289D1)
Complete name : A:1080p 60fpsУниверсальный солдат 1080p 60fpsУниверсальный солдат 1.mkv
Format : Matroska
Format version : Version 4 / Version 2
File size : 11.5 GiB
Duration : 1h 44mn
Overall bit rate : 15.9 Mbps
Movie name : R.G HD-Films by Tiberiumsun69 60fps
Encoded date : UTC 2014-12-06 09:31:44
Writing application : mkvmerge v7.3.0 ('Nouages') 64bit built on Oct 22 2014 18:53:34
Writing library : libebml v1.3.0 + libmatroska v1.4.1
Attachment : Yes
Video
ID : 1
Format : AVC
Format/Info : Advanced Video Codec
Format profile : High@L4.1
Format settings, CABAC : Yes
Format settings, ReFrames : 4 frames
Codec ID : V_MPEG4/ISO/AVC
Duration : 1h 44mn
Bit rate : 14.0 Mbps
Width : 1 920 pixels
Height : 816 pixels
Display aspect ratio : 2.35:1
Frame rate : 59.940 fps
Color space : YUV
Chroma subsampling : 4:2:0
Bit depth : 8 bits
Scan type : Progressive
Bits/(Pixel*Frame) : 0.149
Stream size : 9.95 GiB (86%)
Title : R.G HD-Films by Tiberiumsun69 60fps
Writing library : x264 core 142 r2491 24e4fed
Encoding settings : cabac=1 / ref=4 / deblock=1:-1:-1 / analyse=0x3:0 / me=umh / subme=10 / psy=1 / psy_rd=1.00:0.00 / mixed_ref=1 / me_range=32 / chroma_me=0 / trellis=2 / 8x8dct=1 / cqm=0 / deadzone=21,11 / fast_pskip=1 / chroma_qp_offset=-2 / threads=12 / lookahead_threads=1 / sliced_threads=0 / nr=0 / decimate=1 / interlaced=0 / bluray_compat=0 / constrained_intra=0 / bframes=5 / b_pyramid=2 / b_adapt=2 / b_bias=0 / direct=1 / weightb=1 / open_gop=0 / weightp=2 / keyint=250 / keyint_min=59 / scenecut=40 / intra_refresh=0 / rc=2pass / mbtree=0 / bitrate=14000 / ratetol=1.0 / qcomp=0.80 / qpmin=0 / qpmax=69 / qpstep=4 / cplxblur=20.0 / qblur=0.5 / ip_ratio=1.40 / pb_ratio=1.30 / aq=1:1.00
Language : English
Default : Yes
Forced : No
Audio #1
ID : 2
Format : AC-3
Format/Info : Audio Coding 3
Mode extension : CM (complete main)
Codec ID : A_AC3
Duration : 1h 44mn
Bit rate mode : Constant
Bit rate : 192 Kbps
Channel(s) : 2 channels
Channel positions : Front: L R
Sampling rate : 48.0 KHz
Bit depth : 16 bits
Compression mode : Lossy
Stream size : 143 MiB (1%)
Title : Дубляж + многоголосый, закадровый на вставки
Language : Russian
Default : Yes
Forced : No
Audio #2
ID : 3
Format : AC-3
Format/Info : Audio Coding 3
Mode extension : CM (complete main)
Codec ID : A_AC3
Duration : 1h 44mn
Bit rate mode : Constant
Bit rate : 448 Kbps
Channel(s) : 6 channels
Channel positions : Front: L C R, Side: L R, LFE
Sampling rate : 48.0 KHz
Bit depth : 16 bits
Compression mode : Lossy
Stream size : 334 MiB (3%)
Title : Многоголосый, закадровый AuraFilm
Language : Russian
Default : No
Forced : No
Audio #3
ID : 4
Format : AC-3
Format/Info : Audio Coding 3
Mode extension : CM (complete main)
Codec ID : A_AC3
Duration : 1h 44mn
Bit rate mode : Constant
Bit rate : 192 Kbps
Channel(s) : 2 channels
Channel positions : Front: L R
Sampling rate : 48.0 KHz
Bit depth : 16 bits
Compression mode : Lossy
Stream size : 143 MiB (1%)
Title : Многоголосый, закадровый СТС
Language : Russian
Default : No
Forced : No
Audio #4
ID : 5
Format : AC-3
Format/Info : Audio Coding 3
Mode extension : CM (complete main)
Codec ID : A_AC3
Duration : 1h 44mn
Bit rate mode : Constant
Bit rate : 384 Kbps
Channel(s) : 6 channels
Channel positions : Front: L C R, Side: L R, LFE
Sampling rate : 48.0 KHz
Bit depth : 16 bits
Compression mode : Lossy
Stream size : 286 MiB (2%)
Title : Многоголосый, закадровый Твистер
Language : Russian
Default : No
Forced : No
Audio #5
ID : 6
Format : AC-3
Format/Info : Audio Coding 3
Mode extension : CM (complete main)
Codec ID : A_AC3
Duration : 1h 44mn
Bit rate mode : Constant
Bit rate : 640 Kbps
Channel(s) : 6 channels
Channel positions : Front: L C R, Side: L R, LFE
Sampling rate : 48.0 KHz
Bit depth : 16 bits
Compression mode : Lossy
Stream size : 477 MiB (4%)
Title : Оригинал
Language : English
Default : No
Forced : No
Text #1
ID : 7
Format : UTF-8
Codec ID : S_TEXT/UTF8
Codec ID/Info : UTF-8 Plain Text
Title : Полные
Language : Russian
Default : No
Forced : No
Text #2
ID : 8
Format : UTF-8
Codec ID : S_TEXT/UTF8
Codec ID/Info : UTF-8 Plain Text
Title : Полные
Language : English
Default : No
Forced : No
Menu
00:00:00.000 : en:Chapter 1
00:07:31.354 : en:Chapter 2
00:12:13.136 : en:Chapter 3
00:15:35.880 : en:Chapter 4
00:20:41.060 : en:Chapter 5
00:25:09.745 : en:Chapter 6
00:28:53.051 : en:Chapter 7
00:32:53.667 : en:Chapter 8
00:38:09.440 : en:Chapter 9
00:42:33.454 : en:Chapter 10
00:47:26.163 : en:Chapter 11
00:53:09.047 : en:Chapter 12
00:55:12.963 : en:Chapter 13
01:01:33.718 : en:Chapter 14
01:04:42.323 : en:Chapter 15
01:08:37.809 : en:Chapter 16
01:12:35.921 : en:Chapter 17
01:16:32.241 : en:Chapter 18
01:21:00.384 : en:Chapter 19
01:25:57.806 : en:Chapter 20
01:29:26.598 : en:Chapter 21
01:32:05.924 : en:Chapter 22
01:35:49.981 : en:Chapter 23
01:38:26.888 : en:Chapter 24

Скриншоты

Универсальный солдат 2: Возвращение

-Название: Универсальный солдат 2: Возвращение
Оригинальное название: Universal Soldier: The Return
Год выпуска: 1999
Страна: США
Жанр: фантастика, боевик
Продолжительность: 01:23:11
Перевод: Дубляж
Субтитры: русские (Полные), английские (Полные)-Режиссер: Мик Роджерс / Mic Rodgers-В ролях: Жан-Клод Ван Дамм (Luc Deveraux), Майкл Джей Уайт (S.E.T.H.), Хайди Шанц (Erin Young, KTXD), Ксандер Беркли (Dr. Dylan Cotner), Джастин Лазард (Captain Blackburn), Киана Том (Maggie), Дэниэл фон Барген (General Radford), Джеймс Блэк (Sergeant Morrow), Керис Пейдж Брайант (Hillary Deveraux), Билл Голдберг (UniSol 2500), Брент Андерсон (Technician #2), Брент Хинкли (Squid)-Описание:
Универсальный солдат - совершенная кибернетическая машина убийства, неустрашимый воин, который не ведает боли и страха. Когда-то Люк Деваро был одним из них. Теперь в качестве технического эксперта он работает над созданием новых непобедимых роботов в человеческом облике, киборгов следующего поколения.
Секретный проект подходит к своей кульминационной точке, но в этот момент суперкомпьютер, контролирующий целую армию универсальных солдат, выходит из повиновения. Он находит себе неуязвимое тело и возглавляет легион идеальных убийц. Совершенное оружие, созданное правительством для защиты людей, оборачивается против человечества. И никому не дано знать, что происходит внутри неуправляемой машины. Кроме того, кто уже однажды был ею...-Рейтинг

imdb.com: 4.00 (22 143)
MPAA: R - Лицам до 17 лет обязательно присутствие взрослого-Автор рипа:Tiberiumsun69
-Качество: BDRip 1080p / 60 FPS
Формат: MKV
Видео кодек: AVC
Аудио кодек:AC3
Видео: AVC, 1920x1040 (16:9), 14000 kbps, 59,940 fps, 0,117 bpp
Аудио №1: русский / AC3 / 5.1 / 48 kHz / 640 kbps / 16 bit |Дубляж|
Аудио №2: русский / AC3 / 5.1 / 48 kHz / 384 kbps / 16 bit |Многоголосый, закадровый|
Аудио №3: английский / AC3 / 5.1 / 48 kHz / 640 kbps / 16 bit
Навигация по главам: есть- -

MI

General
Unique ID : 238683315867140380229622143921761295183 (0xB390BC09DB90F8388C4A910975B41B4F)
Complete name : A:1080p 60fpsУниверсальный солдат 1080p 60fpsУниверсальный солдат 2.mkv
Format : Matroska
Format version : Version 4 / Version 2
File size : 9.09 GiB
Duration : 1h 23mn
Overall bit rate : 15.6 Mbps
Movie name : R.G HD-Films by Tiberiumsun69 60fps
Encoded date : UTC 2014-12-06 09:28:13
Writing application : mkvmerge v7.3.0 ('Nouages') 64bit built on Oct 22 2014 18:53:34
Writing library : libebml v1.3.0 + libmatroska v1.4.1
Attachment : Yes
Video
ID : 1
Format : AVC
Format/Info : Advanced Video Codec
Format profile : High@L4.1
Format settings, CABAC : Yes
Format settings, ReFrames : 4 frames
Codec ID : V_MPEG4/ISO/AVC
Duration : 1h 23mn
Bit rate : 14.0 Mbps
Width : 1 920 pixels
Height : 1 040 pixels
Display aspect ratio : 16:9
Frame rate : 59.940 fps
Color space : YUV
Chroma subsampling : 4:2:0
Bit depth : 8 bits
Scan type : Progressive
Bits/(Pixel*Frame) : 0.117
Stream size : 7.94 GiB (87%)
Title : R.G HD-Films by Tiberiumsun69 60fps
Writing library : x264 core 142 r2491 24e4fed
Encoding settings : cabac=1 / ref=4 / deblock=1:-1:-1 / analyse=0x3:0 / me=umh / subme=10 / psy=1 / psy_rd=1.00:0.00 / mixed_ref=1 / me_range=32 / chroma_me=0 / trellis=2 / 8x8dct=1 / cqm=0 / deadzone=21,11 / fast_pskip=1 / chroma_qp_offset=-2 / threads=12 / lookahead_threads=1 / sliced_threads=0 / nr=0 / decimate=1 / interlaced=0 / bluray_compat=0 / constrained_intra=0 / bframes=5 / b_pyramid=2 / b_adapt=2 / b_bias=0 / direct=1 / weightb=1 / open_gop=0 / weightp=2 / keyint=250 / keyint_min=59 / scenecut=40 / intra_refresh=0 / rc=2pass / mbtree=0 / bitrate=14000 / ratetol=1.0 / qcomp=0.80 / qpmin=0 / qpmax=69 / qpstep=4 / cplxblur=20.0 / qblur=0.5 / ip_ratio=1.40 / pb_ratio=1.30 / aq=1:1.00
Language : English
Default : Yes
Forced : No
Audio #1
ID : 2
Format : AC-3
Format/Info : Audio Coding 3
Mode extension : CM (complete main)
Codec ID : A_AC3
Duration : 1h 23mn
Bit rate mode : Constant
Bit rate : 640 Kbps
Channel(s) : 6 channels
Channel positions : Front: L C R, Side: L R, LFE
Sampling rate : 48.0 KHz
Bit depth : 16 bits
Compression mode : Lossy
Stream size : 381 MiB (4%)
Title : Дубляж
Language : Russian
Default : Yes
Forced : No
Audio #2
ID : 3
Format : AC-3
Format/Info : Audio Coding 3
Mode extension : CM (complete main)
Codec ID : A_AC3
Duration : 1h 23mn
Bit rate mode : Constant
Bit rate : 384 Kbps
Channel(s) : 6 channels
Channel positions : Front: L C R, Side: L R, LFE
Sampling rate : 48.0 KHz
Bit depth : 16 bits
Compression mode : Lossy
Stream size : 229 MiB (2%)
Title : Многоголосый, закадровый
Language : Russian
Default : No
Forced : No
Audio #3
ID : 4
Format : AC-3
Format/Info : Audio Coding 3
Mode extension : CM (complete main)
Codec ID : A_AC3
Duration : 1h 23mn
Bit rate mode : Constant
Bit rate : 640 Kbps
Channel(s) : 6 channels
Channel positions : Front: L C R, Side: L R, LFE
Sampling rate : 48.0 KHz
Bit depth : 16 bits
Compression mode : Lossy
Stream size : 381 MiB (4%)
Title : Оригинал
Language : English
Default : No
Forced : No
Text #1
ID : 5
Format : UTF-8
Codec ID : S_TEXT/UTF8
Codec ID/Info : UTF-8 Plain Text
Title : Полные
Language : Russian
Default : No
Forced : No
Text #2
ID : 6
Format : UTF-8
Codec ID : S_TEXT/UTF8
Codec ID/Info : UTF-8 Plain Text
Title : Полные
Language : English
Default : No
Forced : No
Menu
00:00:13.000 : ru:Chapter 1
00:05:13.000 : ru:Chapter 2
00:10:13.000 : ru:Chapter 3
00:15:13.000 : ru:Chapter 4
00:20:13.000 : ru:Chapter 4
00:25:13.000 : ru:Chapter 5
00:30:13.000 : ru:Chapter 6
00:35:13.000 : ru:Chapter 7
00:40:13.000 : ru:Chapter 8
00:45:13.000 : ru:Chapter 9
00:50:13.000 : ru:Chapter 10
00:55:13.000 : ru:Chapter 11
01:00:13.000 : ru:Chapter 12
01:05:13.000 : ru:Chapter 13
01:10:13.000 : ru:Chapter 14
01:15:13.000 : ru:Chapter 15

Скриншоты

Универсальный солдат 3: Возрождение

-Название: Универсальный солдат 3: Возрождение
Оригинальное название: Universal Soldier: Regeneration
Год выпуска: 2009
Страна: США
Жанр: фантастика, боевик, триллер, приключения
Продолжительность: 01:37:10
Перевод: Профессиональный многоголосый
Субтитры: русские (Полные), английские (Полные)-Режиссер: Джон Хайамс / John Hyams-В ролях: Жан-Клод Ван Дамм (Luc Deveraux), Дольф Лундгрен (Andrew Scott), Андрей Орловский (NGU), Майк Пайл (Captain Kevin Burke), Кори Джонсон (Col. John Coby), Гарри Купер (Dr. Porter), Эмили Джойс (Dr. Sandra Flemming), Захари Бахаров (Commander Topov), Аки Авни (General Boris), Керри Шейл (Dr. Colin), Ёнко Димитров (Dimitri), Виолета Марковска (Ivana)-Описание:
Чеченский террорист по фамилии Топофф захватывает Чернобыльскую АЭС и угрожает взорвать ее. На его стороне - бывший сотрудник программы «Универсальный солдат», поставивший на службу террористу грозное оружие - одного из своих подопечных. Ситуация осложняется тем, что в заложниках оказываются дети видного государственного деятеля. Попытки освободить опасный объект превращаются в кровавую бойню. И тогда в схватку с модернизированным унисолом вступает Люк Девро. Однако его ждёт встреча не только со сбродом Топоффа и унисолом нового поколения, но и со своим старым знакомым - сержантом Эндрю Скоттом.-Рейтинг

imdb.com: 5.20 (20 449)
MPAA: R - Лицам до 17 лет обязательно присутствие взрослого-Автор рипа:Tiberiumsun69
-Качество: BDRip 1080p / 60 FPS
Формат: MKV
Видео кодек: AVC
Аудио кодек:AC3
Видео: AVC, 1920x816 (2.35:1), 14000 kbps, 59,940 fps, 0,149 bpp
Аудио №1: русский / AC3 / 5.1 / 48 kHz / 384 kbps / 16 bit |Многоголосый, закадровый|
Аудио №2: английский / AC3 / 5.1 / 48 kHz / 640 kbps / 16 bit
Навигация по главам: есть- -

MI

General
Unique ID : 183321233089765826753538093536326815110 (0x89EA629E1A50DCE08491258D1B158D86)
Complete name : A:1080p 60fpsУниверсальный солдат 1080p 60fpsУниверсальный солдат 3.mkv
Format : Matroska
Format version : Version 4 / Version 2
File size : 10.2 GiB
Duration : 1h 37mn
Overall bit rate : 15.0 Mbps
Movie name : R.G HD-Films by Tiberiumsun69 60fps
Encoded date : UTC 2014-12-06 10:03:04
Writing application : mkvmerge v7.3.0 ('Nouages') 64bit built on Oct 22 2014 18:53:34
Writing library : libebml v1.3.0 + libmatroska v1.4.1
Attachment : Yes
Video
ID : 1
Format : AVC
Format/Info : Advanced Video Codec
Format profile : High@L4.1
Format settings, CABAC : Yes
Format settings, ReFrames : 4 frames
Codec ID : V_MPEG4/ISO/AVC
Duration : 1h 37mn
Bit rate : 14.0 Mbps
Width : 1 920 pixels
Height : 816 pixels
Display aspect ratio : 2.35:1
Frame rate : 59.940 fps
Color space : YUV
Chroma subsampling : 4:2:0
Bit depth : 8 bits
Scan type : Progressive
Bits/(Pixel*Frame) : 0.149
Stream size : 9.30 GiB (91%)
Title : R.G HD-Films by Tiberiumsun69 60fps
Writing library : x264 core 142 r2491 24e4fed
Encoding settings : cabac=1 / ref=4 / deblock=1:-1:-1 / analyse=0x3:0 / me=umh / subme=10 / psy=1 / psy_rd=1.00:0.00 / mixed_ref=1 / me_range=32 / chroma_me=0 / trellis=2 / 8x8dct=1 / cqm=0 / deadzone=21,11 / fast_pskip=1 / chroma_qp_offset=-2 / threads=12 / lookahead_threads=1 / sliced_threads=0 / nr=0 / decimate=1 / interlaced=0 / bluray_compat=0 / constrained_intra=0 / bframes=5 / b_pyramid=2 / b_adapt=2 / b_bias=0 / direct=1 / weightb=1 / open_gop=0 / weightp=2 / keyint=250 / keyint_min=59 / scenecut=40 / intra_refresh=0 / rc=2pass / mbtree=0 / bitrate=14000 / ratetol=1.0 / qcomp=0.80 / qpmin=0 / qpmax=69 / qpstep=4 / cplxblur=20.0 / qblur=0.5 / ip_ratio=1.40 / pb_ratio=1.30 / aq=1:1.00
Language : English
Default : Yes
Forced : No
Audio #1
ID : 2
Format : AC-3
Format/Info : Audio Coding 3
Mode extension : CM (complete main)
Codec ID : A_AC3
Duration : 1h 37mn
Bit rate mode : Constant
Bit rate : 384 Kbps
Channel(s) : 6 channels
Channel positions : Front: L C R, Side: L R, LFE
Sampling rate : 48.0 KHz
Bit depth : 16 bits
Compression mode : Lossy
Stream size : 267 MiB (3%)
Title : Многоголосый, закадровый CP Digital / R5
Language : Russian
Default : Yes
Forced : No
Audio #2
ID : 3
Format : AC-3
Format/Info : Audio Coding 3
Mode extension : CM (complete main)
Codec ID : A_AC3
Duration : 1h 37mn
Bit rate mode : Constant
Bit rate : 640 Kbps
Channel(s) : 6 channels
Channel positions : Front: L C R, Side: L R, LFE
Sampling rate : 48.0 KHz
Bit depth : 16 bits
Compression mode : Lossy
Stream size : 445 MiB (4%)
Title : Оригинал
Language : English
Default : No
Forced : No
Text #1
ID : 4
Format : UTF-8
Codec ID : S_TEXT/UTF8
Codec ID/Info : UTF-8 Plain Text
Title : Полные
Language : Russian
Default : No
Forced : No
Text #2
ID : 5
Format : UTF-8
Codec ID : S_TEXT/UTF8
Codec ID/Info : UTF-8 Plain Text
Title : Полные
Language : English
Default : No
Forced : No
Menu
00:00:13.000 : ru:Chapter 1
00:05:13.000 : ru:Chapter 2
00:10:13.000 : ru:Chapter 3
00:15:13.000 : ru:Chapter 4
00:20:13.000 : ru:Chapter 4
00:25:13.000 : ru:Chapter 5
00:30:13.000 : ru:Chapter 6
00:35:13.000 : ru:Chapter 7
00:40:13.000 : ru:Chapter 8
00:45:13.000 : ru:Chapter 9
00:50:13.000 : ru:Chapter 10
00:55:13.000 : ru:Chapter 11
01:00:13.000 : ru:Chapter 12
01:05:13.000 : ru:Chapter 13
01:10:13.000 : ru:Chapter 14
01:15:13.000 : ru:Chapter 15
01:20:13.000 : ru:Chapter 16
01:25:13.000 : ru:Chapter 17

Скриншоты

Универсальный солдат 4

-Название: Универсальный солдат 4
Оригинальное название: Universal Soldier: Day of Reckoning
Год выпуска: 2012
Страна: США
Жанр: ужасы, фантастика, боевик, триллер, детектив
Продолжительность: 01:53:56
Перевод: Дубляж
Субтитры: русские (Полные), английские (Полные)-Режиссер: Джон Хайамс / John Hyams-В ролях: Жан-Клод Ван Дамм (Luc Deveraux), Скотт Эдкинс (John), Андрей Орловский (Magnus), Дольф Лундгрен (Andrew Scott), Мария Боннер (Sarah), Тони Жарро (Bouncer), Крэйг Уолкер (Earl), Эндрю Сиккинг (Larry), Джеймс ДюМонт (Dr. Timothy Brady), Дэвид Дженсен (Dr. Su), Одри П. Скотт (Emma), Рас Блэквелл (Agent Gorman)-Описание:
Настоящее время. Программа «Unisol» по-прежнему актуальна и снова введена в эксплуатацию. Давним и непримиримым врагам времён Вьетнамской войны Эндрю Скотту и Люку Деверо суждено встретиться в очередной раз, дабы продолжить своё извечное противостояние и нескончаемую борьбу. Однако, новые опасности и трудности заставляют двух солдат на время объединиться пред лицом общей неприятности, что весьма ненадолго. Ясно одно: кровавый исход и брутальный финал неизбежен...-Рейтинг

imdb.com: 5.00 (13 924)
MPAA: R - Лицам до 17 лет обязательно присутствие взрослого-Автор рипа:Tiberiumsun69
-Качество: BDRip 1080p / 60 FPS
Формат: MKV
Видео кодек: AVC
Аудио кодек:AC3
Видео: AVC, 1920x816 (2.35:1), 14000 kbps, 59,940 fps, 0,149 bpp
Аудио №1: русский / AC3 / 5.1 / 48 kHz / 448 kbps / 16 bit |Дубляж|
Аудио №2: английский / AC3 / 5.1 / 48 kHz / 640 kbps / 16 bit
Навигация по главам: есть- -

MI

General
Unique ID : 233101285484938913492708377578800927860 (0xAF5DACB13699F2FC982F69BE1617D474)
Complete name : A:1080p 60fpsУниверсальный солдат 1080p 60fpsУниверсальный солдат 4.mkv
Format : Matroska
Format version : Version 4 / Version 2
File size : 12.0 GiB
Duration : 1h 53mn
Overall bit rate : 15.1 Mbps
Movie name : R.G HD-Films by Tiberiumsun69 60fps
Encoded date : UTC 2014-12-06 10:42:08
Writing application : mkvmerge v7.3.0 ('Nouages') 64bit built on Oct 22 2014 18:53:34
Writing library : libebml v1.3.0 + libmatroska v1.4.1
Attachment : Yes
Video
ID : 1
Format : AVC
Format/Info : Advanced Video Codec
Format profile : High@L4.1
Format settings, CABAC : Yes
Format settings, ReFrames : 4 frames
Codec ID : V_MPEG4/ISO/AVC
Duration : 1h 53mn
Bit rate : 14.0 Mbps
Width : 1 920 pixels
Height : 816 pixels
Display aspect ratio : 2.35:1
Frame rate : 59.940 fps
Color space : YUV
Chroma subsampling : 4:2:0
Bit depth : 8 bits
Scan type : Progressive
Bits/(Pixel*Frame) : 0.149
Stream size : 10.9 GiB (91%)
Title : R.G HD-Films by Tiberiumsun69 60fps
Writing library : x264 core 142 r2491 24e4fed
Encoding settings : cabac=1 / ref=4 / deblock=1:-1:-1 / analyse=0x3:0 / me=umh / subme=10 / psy=1 / psy_rd=1.00:0.00 / mixed_ref=1 / me_range=32 / chroma_me=0 / trellis=2 / 8x8dct=1 / cqm=0 / deadzone=21,11 / fast_pskip=1 / chroma_qp_offset=-2 / threads=12 / lookahead_threads=1 / sliced_threads=0 / nr=0 / decimate=1 / interlaced=0 / bluray_compat=0 / constrained_intra=0 / bframes=5 / b_pyramid=2 / b_adapt=2 / b_bias=0 / direct=1 / weightb=1 / open_gop=0 / weightp=2 / keyint=250 / keyint_min=59 / scenecut=40 / intra_refresh=0 / rc=2pass / mbtree=0 / bitrate=14000 / ratetol=1.0 / qcomp=0.80 / qpmin=0 / qpmax=69 / qpstep=4 / cplxblur=20.0 / qblur=0.5 / ip_ratio=1.40 / pb_ratio=1.30 / aq=1:1.00
Language : English
Default : Yes
Forced : No
Audio #1
ID : 2
Format : AC-3
Format/Info : Audio Coding 3
Mode extension : CM (complete main)
Codec ID : A_AC3
Duration : 1h 53mn
Bit rate mode : Constant
Bit rate : 448 Kbps
Channel(s) : 6 channels
Channel positions : Front: L C R, Side: L R, LFE
Sampling rate : 48.0 KHz
Bit depth : 16 bits
Compression mode : Lossy
Stream size : 365 MiB (3%)
Title : Дубляж
Language : Russian
Default : Yes
Forced : No
Audio #2
ID : 3
Format : AC-3
Format/Info : Audio Coding 3
Mode extension : CM (complete main)
Codec ID : A_AC3
Duration : 1h 53mn
Bit rate mode : Constant
Bit rate : 640 Kbps
Channel(s) : 6 channels
Channel positions : Front: L C R, Side: L R, LFE
Sampling rate : 48.0 KHz
Bit depth : 16 bits
Compression mode : Lossy
Stream size : 522 MiB (4%)
Title : Оригинал
Language : English
Default : No
Forced : No
Text #1
ID : 4
Format : UTF-8
Codec ID : S_TEXT/UTF8
Codec ID/Info : UTF-8 Plain Text
Title : Полные
Language : Russian
Default : No
Forced : No
Text #2
ID : 5
Format : UTF-8
Codec ID : S_TEXT/UTF8
Codec ID/Info : UTF-8 Plain Text
Title : Полные
Language : English
Default : No
Forced : No
Menu
00:00:00.000 : :Chapter 01
00:06:59.104 : :Chapter 02
00:16:55.459 : :Chapter 03
00:23:46.078 : :Chapter 04
00:29:37.012 : :Chapter 05
00:38:10.191 : :Chapter 06
00:49:58.983 : :Chapter 07
00:59:40.230 : :Chapter 08
01:08:55.451 : :Chapter 09
01:18:31.902 : :Chapter 10
01:28:04.891 : :Chapter 11
01:35:12.860 : :Chapter 12

Скриншоты

Просьба к переливающим на другие сайты, в оформлении указывайте пожалуйста авторство рипа - Tiberiumsun69

[Цитировать]
Владимир 1965

Спасибо за релиз качаем

[Цитировать]
mimok

с каждым фильмом ВанДамм всё лысее и лысее :ap:

[Цитировать]
Kryl

979с каждым фильмом ВанДамм всё лысее и лысее :ap:
Посмотрим на тебя , когда столько же стукнет :spiteful:

[Цитировать]
mimok

KRYL, а я ни когда не отличался волосатостью :ag:

[Цитировать]
Black Prince

с каждым релизом трекер всё круче и круче!

[Цитировать]
Андрей 60

Спасибо!

[Цитировать]
Syrax

Из всех частей 2я на мой взгляд самая не удачная. На остальные серии с течением времени я смотрел под другим углом и мне они понравились конечно 4я лучше 3й но и 3я когда я первый раз смотрел да DVD с самого начала фильма мне очень понравилась сцена красивая и реальная такая)
 
Показать сообщения:    

Текущее время: 25-Июл 15:32

Часовой пояс: UTC + 3


Вы не можете начинать темы
Вы не можете отвечать на сообщения
Вы не можете редактировать свои сообщения
Вы не можете удалять свои сообщения
Вы не можете голосовать в опросах
Вы не можете прикреплять файлы к сообщениям
Вы не можете скачивать файлы