[Цитировать]
ZHz

Название: Укрощение строптивого
Оригинальное название: Il Bisbetico Domato
Год выпуска: 1980
Страна: Италия
Жанр: Комедия
Продолжительность: 01:46:39
Перевод: дубляж со вставками многоголосого, многоголосый (2 шт.), одноголосый (2 шт.)
Субтитры: Отсутствуют
Режиссер: Франко Кастеллано, Джузеппе Моччиа (Пиполо)-В ролях: Адриано Челентано, Орнелла Мути, Эдит Питерс, Пиппо Сантонастасо, Милли Карлуччи, Сандро Гиани, Николя Дель Буоно, Винченцо Де Тома, Джимми иль Феномено, Елена Мари--Описание: Категорически не приемлющий женского общества грубоватый фермер вполне счастлив и доволен своей холостяцкой жизнью. Но неожиданно появившаяся в его жизни героиня пытается изменить его взгляды на жизнь и очаровать его. Что же из этого получится…--СЭМПЛ
Кодек: AVC
Формат: MKV
Качество: BDRip
Видео: 1920x1080, 59.940 fps, 18 Mbps
Аудио №1:Dolby Digital Audio Russian 192 kbps 2.0 / 48 kHz / 192 kbps / DN -4dB / Dolby Surround (DUB "Киностудия им. Горького") со вставками MVO)
Аудио №2:Dolby Digital Audio Russian 224 kbps 2.0 / 48 kHz / 224 kbps / DN -4dB / Dolby Surround (MVO - ДВД "Киноакадемия представляет")
Аудио №3:Dolby Digital Audio Russian 224 kbps 2.0 / 48 kHz / 224 kbps / DN -4dB / Dolby Surround (MVO "Карусель" - наложенный на итальянский ориг. звук)
Аудио №4:Dolby Digital Audio Russian 192 kbps 2.0 / 48 kHz / 192 kbps / DN -4dB (VO - Мудров)
Аудио №5:Dolby Digital Audio Russian 192 kbps 2.0 / 48 kHz / 192 kbps / DN -4dB (VO - Живаго)
Аудио №6:Dolby Digital Audio Italian 224 kbps 2.0 / 48 kHz / 224 kbps / DN -4dB

MediaInfo

General
Unique ID : 215673112471010159655639771339796581992 (0xA241216BC57C374EADC243C086490E68)
Complete name : J:\60FPS\IL Bisbetico Domato\IL Bisbetico Domato[60FPS by ZHz].mkv
Format : Matroska
Format version : Version 2
File size : 14.3 GiB
Duration : 1h 46mn
Overall bit rate : 19.2 Mbps
Movie name : Stroptivyi.BDRip.1080p.3HR&Zer0
Encoded date : UTC 2014-11-06 17:55:11
Writing application : mkvmerge v4.2.0 ('No Talking') сборка от Jul 28 2010 18:38:23
Writing library : libebml v1.0.0 + libmatroska v1.0.0
Video
ID : 1
Format : AVC
Format/Info : Advanced Video Codec
Format profile : High@L4.2
Format settings, CABAC : Yes
Format settings, ReFrames : 4 frames
Muxing mode : Header stripping
Codec ID : V_MPEG4/ISO/AVC
Duration : 1h 46mn
Bit rate : 18.0 Mbps
Width : 1 920 pixels
Height : 1 080 pixels
Display aspect ratio : 16:9
Frame rate mode : Constant
Frame rate : 60.000 fps
Color space : YUV
Chroma subsampling : 4:2:0
Bit depth : 8 bits
Scan type : Progressive
Bits/(Pixel*Frame) : 0.145
Stream size : 13.1 GiB (92%)
Writing library : x264 core 130 r2273 b3065e6
Encoding settings : cabac=1 / ref=3 / deblock=1:-1:-1 / analyse=0x3:0x112 / me=umh / subme=4 / psy=1 / psy_rd=1.00:0.10 / mixed_ref=1 / me_range=4 / chroma_me=1 / trellis=2 / 8x8dct=1 / cqm=0 / deadzone=21,11 / fast_pskip=1 / chroma_qp_offset=-1 / threads=12 / lookahead_threads=3 / sliced_threads=0 / nr=0 / decimate=1 / interlaced=0 / bluray_compat=0 / constrained_intra=0 / bframes=3 / b_pyramid=2 / b_adapt=1 / b_bias=0 / direct=1 / weightb=1 / open_gop=0 / weightp=2 / keyint=250 / keyint_min=25 / scenecut=40 / intra_refresh=0 / rc_lookahead=40 / rc=abr / mbtree=1 / bitrate=18000 / ratetol=1.0 / qcomp=0.60 / qpmin=0 / qpmax=69 / qpstep=4 / ip_ratio=1.40 / aq=1:1.00
Language : English
Default : Yes
Forced : No
Audio #1
ID : 2
Format : AC-3
Format/Info : Audio Coding 3
Format profile : Dolby Digital
Mode extension : CM (complete main)
Format settings, Endianness : Big
Muxing mode : Header stripping
Codec ID : A_AC3
Duration : 1h 46mn
Bit rate mode : Constant
Bit rate : 192 Kbps
Channel(s) : 2 channels
Channel positions : Front: L R
Sampling rate : 48.0 KHz
Bit depth : 16 bits
Compression mode : Lossy
Stream size : 147 MiB (1%)
Title : DUB "Киностудия им. Горького") со вставками MVO
Language : Russian
Default : Yes
Forced : No
Audio #2
ID : 3
Format : AC-3
Format/Info : Audio Coding 3
Format profile : Dolby Digital
Mode extension : CM (complete main)
Format settings, Endianness : Big
Muxing mode : Header stripping
Codec ID : A_AC3
Duration : 1h 46mn
Bit rate mode : Constant
Bit rate : 224 Kbps
Channel(s) : 2 channels
Channel positions : Front: L R
Sampling rate : 48.0 KHz
Bit depth : 16 bits
Compression mode : Lossy
Stream size : 171 MiB (1%)
Title : MVO - ДВД "Киноакадемия представляет"
Language : Russian
Default : No
Forced : No
Audio #3
ID : 4
Format : AC-3
Format/Info : Audio Coding 3
Format profile : Dolby Digital
Mode extension : CM (complete main)
Format settings, Endianness : Big
Muxing mode : Header stripping
Codec ID : A_AC3
Duration : 1h 46mn
Bit rate mode : Constant
Bit rate : 224 Kbps
Channel(s) : 2 channels
Channel positions : Front: L R
Sampling rate : 48.0 KHz
Bit depth : 16 bits
Compression mode : Lossy
Stream size : 171 MiB (1%)
Title : MVO "Карусель" - наложенный на итальянский ориг. звук
Language : Russian
Default : No
Forced : No
Audio #4
ID : 5
Format : AC-3
Format/Info : Audio Coding 3
Mode extension : CM (complete main)
Format settings, Endianness : Big
Muxing mode : Header stripping
Codec ID : A_AC3
Duration : 1h 46mn
Bit rate mode : Constant
Bit rate : 192 Kbps
Channel(s) : 2 channels
Channel positions : Front: L R
Sampling rate : 48.0 KHz
Bit depth : 16 bits
Compression mode : Lossy
Stream size : 147 MiB (1%)
Title : VO - Мудров
Language : Russian
Default : No
Forced : No
Audio #5
ID : 6
Format : AC-3
Format/Info : Audio Coding 3
Mode extension : CM (complete main)
Format settings, Endianness : Big
Muxing mode : Header stripping
Codec ID : A_AC3
Duration : 1h 46mn
Bit rate mode : Constant
Bit rate : 192 Kbps
Channel(s) : 2 channels
Channel positions : Front: L R
Sampling rate : 48.0 KHz
Bit depth : 16 bits
Compression mode : Lossy
Stream size : 147 MiB (1%)
Title : VO - Живаго
Language : Russian
Default : No
Forced : No
Audio #6
ID : 7
Format : AC-3
Format/Info : Audio Coding 3
Mode extension : CM (complete main)
Format settings, Endianness : Big
Muxing mode : Header stripping
Codec ID : A_AC3
Duration : 1h 46mn
Bit rate mode : Constant
Bit rate : 224 Kbps
Channel(s) : 2 channels
Channel positions : Front: L R
Sampling rate : 48.0 KHz
Bit depth : 16 bits
Compression mode : Lossy
Stream size : 171 MiB (1%)
Language : Italian
Default : No
Forced : No

Скриншоты

[Цитировать]
Гость

ZHz, :az: :aa: Отец будет в восторге.

[Цитировать]
ZHz

Tiberiumsun69, *тут должен быть смайлик в очках* нашел :af:

[Цитировать]
Kryl

Спасибо !!!!

[Цитировать]
Kryl

Не понял ???? почему мультфильмы ???

Топик был перенесен из форума Мультфильмы 60fps в форум Зарубежные фильмы 60fps
KRYL

[Цитировать]
ZHz

375Не понял ???? почему мультфильмы ???
Шаблон был с Геркулеса, не думал, что и категория останется, хотя возможно, что я промахнулся

[Цитировать]
Kryl

Бывает ))

[Цитировать]
Гость

Что за квас?
Куда вы торопитесь?
Делайте достойное качество!

[Цитировать]
ZHz

380Что за квас?
Куда вы торопитесь?
Делайте достойное качество!
Какой еще квас?

[Цитировать]
monterfgup

спасибо,что так быстро!надеюсь качество на 5+!качаю

[Цитировать]
Гость

ZHz, Не картинка а мыло...

[Цитировать]
ZHz

envy, это самый лучший исходник, что мне удалось найти. Фильм 1980 года, какая может быть четкость при разрешении 1080p? Тогда пиксела то не существовало. Мне кажется вы зажрались, сударь.

[Цитировать]
Kryl

386envy, это самый лучший исходник, что мне удалось найти. Фильм 1980 года, какая может быть четкость при разрешении 1080p? Тогда пиксела то не существовало. Мне кажется вы зажрались, сударь.
++++

[Цитировать]
Гость

ZHz, Правильнее было сделать 720p с двойным сжатием картинки.
Было бы лучше!.
А так ладно... Зажравшийся ведь...

Скриншот

- Картинка рипа на 10Гб.
И сравните со своей...
Настаивайте на своем... Закончите как Релиз Группа GoldenShara Которая фильмы делала...
Все скриншоты под сполер !!!...
 
Показать сообщения:    

Текущее время: 06-Дек 15:10

Часовой пояс: UTC + 3


Вы не можете начинать темы
Вы не можете отвечать на сообщения
Вы не можете редактировать свои сообщения
Вы не можете удалять свои сообщения
Вы не можете голосовать в опросах
Вы не можете прикреплять файлы к сообщениям
Вы не можете скачивать файлы