[Цитировать]
mimok

Уиджи: Доска Дьявола / Ouija (2014) BDRip 720p | 60fps«Продолжай убеждать себя, что это всего лишь игра»- Информация о фильме
Название: Уиджи: Доска Дьявола
Оригинальное название: Ouija
Год выхода: 2014
Жанр: Ужасы
Режиссер: Стайлз Уайт
Продюсер: Майкл Бэй, Джейсон Блум, Эндрю Форм
В ролях: Оливия Кук, Ана Кото, Дарен Кагасофф, Бьянка А. Сантос, Дуглас Смит, Шелли Хенниг, Сьерра Хойерманн, Санни Мэй Эллисон, Лин Шэй, Клаудия Кац
Описание фильма:
Компания друзей вынуждена столкнуться с их самыми страшными кошмарами, после того, как пробуждает темные силы с помощью спиритической доски.
Страна: США
Студия: Universal Pictures, Hasbro Inc.
Продолжительность: 01:29:23
Перевод: Дублированный (Лицензия)
Субтитры: Отсутствуют

Дата мировой премьеры: 23 октября 2014
Дата российской премьеры: 13 ноября 2014, «UPI»
Дата выхода DVD релиза: 26 февраля 2015, «Двадцатый Век Фокс СНГ»
Дата выхода Blu-Ray релиза: 26 февраля 2015, «Двадцатый Век Фокс СНГ»
Файл
Формат: MKV
Кодек: MPEG-4 AVC/H.264
Качество: BDRip 720p
Видео: ~ 3810 Кбит/сек, 1280 x 544, 59.940 кадров/сек
Аудио: AC3 5.1, 48.0 KHz, 448 Кбит/сек - Русский

MediaInfo

Общее
Уникальный идентификатор : 182359369084397383275458944227377302785 (0x8931230F8B0F7C2A95104CE7CB564D01)
Полное имя : D:\Торренты\Ouija 60fps.mkv
Формат : Matroska
Версия формата : Version 2
Размер файла : 2,71 Гбайт
Продолжительность : 1 ч. 29 м.
Общий поток : 4344 Кбит/сек
Название фильма : Ouija (2014) Blu-ray CEE 1080p
Дата кодирования : UTC 2015-03-01 09:59:15
Программа кодирования : mkvmerge v6.9.1 ('Blue Panther') 64bit built on Apr 18 2014 18:23:38
Библиотека кодирования : libebml v1.3.0 + libmatroska v1.4.1
Видео
Идентификатор : 1
Формат : AVC
Формат/Информация : Advanced Video Codec
Профиль формата : High@L4.1
Параметр CABAC формата : Да
Параметр ReFrames формата : 6 кадров
Идентификатор кодека : V_MPEG4/ISO/AVC
Продолжительность : 1 ч. 29 м.
Битрейт : 3810 Кбит/сек
Ширина : 1280 пикселей
Высота : 544 пикселя
Соотношение сторон : 2,35:1
Режим частоты кадров : Постоянный
Частота кадров : 59,880 кадров/сек
Частота кадров в оригинале : 59,940 кадров/сек
Цветовое пространство : YUV
Субдискретизация насыщенности : 4:2:0
Битовая глубина : 8 бит
Тип развёртки : Прогрессивная
Бит/(Пиксели*Кадры) : 0.091
Размер потока : 2,38 Гбайт (88%)
Заголовок : Release by mimok
Библиотека кодирования : x264 core 130 r2273 b3065e6
Настройки программы : cabac=1 / ref=6 / deblock=1:-2:-3 / analyse=0x3:0x133 / me=umh / subme=8 / psy=1 / psy_rd=1.00:0.15 / mixed_ref=1 / me_range=20 / chroma_me=1 / trellis=2 / 8x8dct=1 / cqm=0 / deadzone=21,11 / fast_pskip=0 / chroma_qp_offset=-3 / threads=6 / lookahead_threads=2 / sliced_threads=0 / nr=0 / decimate=0 / interlaced=0 / bluray_compat=0 / constrained_intra=0 / bframes=8 / b_pyramid=2 / b_adapt=2 / b_bias=0 / direct=1 / weightb=1 / open_gop=0 / weightp=2 / keyint=250 / keyint_min=25 / scenecut=40 / intra_refresh=0 / rc=crf / mbtree=0 / crf=18.0 / qcomp=0.63 / qpmin=10 / qpmax=51 / qpstep=4 / ip_ratio=1.40 / pb_ratio=1.30 / aq=1:1.20
Default : Да
Forced : Нет
Аудио
Идентификатор : 2
Формат : AC-3
Формат/Информация : Audio Coding 3
Расширение режима : CM (complete main)
Параметр Endianness формата : Big
Идентификатор кодека : A_AC3
Продолжительность : 1 ч. 29 м.
Вид битрейта : Постоянный
Битрейт : 448 Кбит/сек
Каналы : 6 каналов
Расположение каналов : Front: L C R, Side: L R, LFE
Частота : 48,0 КГц
Битовая глубина : 16 бит
Метод сжатия : С потерями
Размер потока : 286 Мбайт (10%)
Заголовок : Dub
Язык : Russian
Default : Да
Forced : Нет

Скринлист

Скриншоты:

Релиз подготовлен 60 - fps

[Цитировать]
Fragrance

класс

[Цитировать]
globus3107

Спасибо!!!
 
Показать сообщения:    

Текущее время: 05-Дек 05:27

Часовой пояс: UTC + 3


Вы не можете начинать темы
Вы не можете отвечать на сообщения
Вы не можете редактировать свои сообщения
Вы не можете удалять свои сообщения
Вы не можете голосовать в опросах
Вы не можете прикреплять файлы к сообщениям
Вы не можете скачивать файлы