Топ Топиков за 24 часа
 
Сделано в Америке / American Made (2017) BDRip 1080p | 60 fps Дюнкерк / Dunkirk (2017) BDRip 1080p | IMAX | 60 fps Телохранитель киллера / The Hitman's Bodyguard (2017) BDRip 1080p | 60 fps Удача Логана / Logan Lucky (2017) BDRip 720p | 60 fps Гоголь. Начало (2017) BDRip 1080p | 60 fps Гоголь. Начало (2017) BDRip 720p | 60 fps Джунгли / Jungle (2017) BDRip 1080p | 60 fps Дюнкерк / Dunkirk (2017) BDRip 720p | IMAX | 60 fps Валериан и город тысячи планет / Valerian and the City of a Thousand Planets (2017) BDRip 720p | 60 fps
  1. Стаж:
    3 года 2 месяца
    Сообщений:
    2116
    Пол:
    Мужской
     
    «See How The Other Half Steals» Информация
    Название: Удача Логана
    Оригинальное название: Logan Lucky
    Год выхода: 2017
    Жанр: комедия, криминал
    Режиссер: Стивен Содерберг
    Сценарий: Ребекка Блант
    Продюсер: Рид Каролин, Дэн Фелмэн, Грегори Джейкобс
    В ролях: Ченнинг Татум, Адам Драйвер, Дэниэл Крэйг, Райли Кио, Кэти Холмс, Джек Куэйд, Брин Глисон, Сет МакФарлейн, Себастьян Стэн, Хилари Суэнк, Фаррах Маккензи, Джим О’Хейр

    Сюжет:
    Уволили с работы? Подготовь самое дерзкое ограбление в истории! Джимми Логан молниеносно подбирает команду «специалистов», способных на такую аферу, и надеется выйти сухим из воды. Будь как Логан!

    Страна: США
    Продолжительность: 01:59:03

    Файл
    Кодек: H.264
    Формат: MKV
    Качество: BDRip 720p | 60 fps
    Видео: 1280 x 534 (2.397) | 60.000 fps | 10.0 Мбит/сек
    Аудио 01: AC3 | 5.1 | 48 kHz | 384 kbps | 16 bit | Дубляж - iTunes |
    Аудио 02: AC3 | 5.1 | 48 kHz | 448 kbps | 16 bit | english |

    MedifInfo

    Видео
    Идентификатор : 1
    Формат : AVC
    Формат/Информация : Advanced Video Codec
    Профиль формата : High@L4.1
    Параметр CABAC формата : Да
    Параметр ReFrames формата : 5 кадров
    Идентификатор кодека : V_MPEG4/ISO/AVC
    Продолжительность : 1 ч. 59 м.
    Битрейт : 9999 Кбит/сек
    Ширина : 1280 пикселей
    Высота : 534 пикселя
    Соотношение сторон : 2,40:1
    Режим частоты кадров : Постоянный
    Частота кадров : 59,880 кадров/сек
    Частота кадров в оригинале : 59,940 кадров/сек
    Цветовое пространство : YUV
    Субдискретизация насыщенности : 4:2:0
    Битовая глубина : 8 бит
    Тип развёртки : Прогрессивная
    Бит/(Пиксели*Кадры) : 0.244
    Размер потока : 8,14 Гбайт (90%)
    Заголовок : www.60-fps.org
    Библиотека кодирования : x264 core 152 r2851 ba24899
    Настройки программы : cabac=1 / ref=5 / deblock=1:-3:-3 / analyse=0x3:0x113 / me=hex / subme=8 / psy=1 / psy_rd=1.00:0.25 / mixed_ref=1 / me_range=16 / chroma_me=1 / trellis=2 / 8x8dct=1 / cqm=0 / deadzone=6,6 / fast_pskip=1 / chroma_qp_offset=-4 / threads=12 / lookahead_threads=2 / sliced_threads=0 / nr=0 / decimate=0 / interlaced=0 / bluray_compat=0 / constrained_intra=0 / bframes=3 / b_pyramid=2 / b_adapt=1 / b_bias=0 / direct=3 / weightb=1 / open_gop=0 / weightp=2 / keyint=599 / keyint_min=59 / scenecut=40 / intra_refresh=0 / rc_lookahead=50 / rc=2pass / mbtree=1 / bitrate=9999 / ratetol=1.0 / qcomp=0.80 / qpmin=0 / qpmax=69 / qpstep=4 / cplxblur=20.0 / qblur=0.5 / vbv_maxrate=62500 / vbv_bufsize=78125 / nal_hrd=none / filler=0 / ip_ratio=1.10 / aq=1:0.50
    Default : Да
    Forced : Нет
    Аудио #1
    Идентификатор : 2
    Формат : AC-3
    Формат/Информация : Audio Coding 3
    Расширение режима : CM (complete main)
    Параметр Endianness формата : Big
    Идентификатор кодека : A_AC3
    Продолжительность : 1 ч. 59 м.
    Вид битрейта : Постоянный
    Битрейт : 384 Кбит/сек
    Каналы : 6 каналов
    Расположение каналов : Front: L C R, Side: L R, LFE
    Частота : 48,0 КГц
    Битовая глубина : 16 бит
    Метод сжатия : С потерями
    Размер потока : 327 Мбайт (4%)
    Заголовок : Дубляж - iTunes
    Язык : Russian
    Default : Да
    Forced : Нет
    Аудио #2
    Идентификатор : 3
    Формат : AC-3
    Формат/Информация : Audio Coding 3
    Расширение режима : CM (complete main)
    Параметр Endianness формата : Big
    Идентификатор кодека : A_AC3
    Продолжительность : 1 ч. 59 м.
    Вид битрейта : Постоянный
    Битрейт : 448 Кбит/сек
    Каналы : 6 каналов
    Расположение каналов : Front: L C R, Side: L R, LFE
    Частота : 48,0 КГц
    Битовая глубина : 16 бит
    Метод сжатия : С потерями
    Размер потока : 381 Мбайт (4%)
    Заголовок : english
    Язык : English
    Default : Нет
    Forced : Нет
    Меню
    00:00:00.000 : en:Jimmy and Sadie
    00:05:41.800 : en:Mellie at her salon
    00:07:33.203 : en:At Bobbie Jo's home
    00:10:40.932 : en:Jimmy and Clyde meet Max at the bar
    00:16:24.025 : en:Cauliflower: planning the heist
    00:21:23.282 : en:Joe Bang
    00:29:08.747 : en:The Bang Brothers
    00:36:03.703 : en:Sylvia
    00:41:49.424 : en:Changing the date; Gleema
    00:47:11.078 : en:Race Day
    00:50:08.881 : en:Joe Bang gets sick
    00:54:40.527 : en:Prison "riot"
    00:57:27.152 : en:Driving to the race
    00:59:16.470 : en:Race broadcast; Dayton White
    01:04:37.290 : en:"America the Beautiful," LeAnn Rimes
    01:07:27.877 : en:Joe talks sience in the tube room
    01:12:12.995 : en:Sucking in the money (and other things)
    01:17:50.249 : en:Dayton's Operating System
    01:19:20.422 : en:Evading the CMS police
    01:24:02.913 : en:Going home; "Storm Warning"
    01:28:33.099 : en:Sadie's performance
    01:32:41.514 : en:The next morning; the FBI arrives
    01:42:27.433 : en:Joe leaves prison
    01:46:07.653 : en:"Fortunate Son"
    01:50:50.936 : en:Bobbie Jo's new home
    01:54:55.263 : en:End titles

    Релиз подготовлен 60 - fps

  2. Стаж:
    1 год 3 месяца
    Сообщений:
    303
    Пол:
    Мужской
     
    Овации Прикольный фильм... !
    В стиле 11 друзей оушен... Смеюсь
    08-Дек-2017 15:36 (спустя 1 день 5 часов)


Вы не можете начинать темы
Вы не можете отвечать на сообщения
Вы не можете редактировать свои сообщения
Вы не можете удалять свои сообщения
Вы не можете голосовать в опросах
Вы не можете прикреплять файлы к сообщениям
Вы не можете скачивать файлы