«Это работа мечты»-- Информация о фильме
Название: Ученик чародея
Оригинальное название: The Sorcerer's Apprentice
Год выхода: 2010
Жанр: фэнтези, боевик, драма, комедия, приключения
Режиссер: Джон Тёртелтауб
Сценарий: Мэтт Лопез
В ролях: Альфред Молина, Николас Кейдж, Тереза Палмер, Тоби Кеббелл, Омар Бенсон Миллер, Моника Беллуччи, Элис Крайдж, Джэйк Черри, Джеймс А. Стефенс, Вэй Чинг Хо, Джейсон Р. Мур, Роберт Капрон, Пейтон Лист
----О фильме:
Манхэттен, наши дни. Мастер магии Бальтазар Блэйк пытается защитить Нью-Йорк от своего старого врага Максима Хорвата — злобного колдуна с самыми черными планами. Однако Бальтазар чувствует, что не справится один и ему нужен помощник…- - Страна: США
Продолжительность: 01:49:02
--Файл
Кодек: MPEG4/ISO/AVC H.264
Формат: MKV
Качество: BDRip 720p
Видео:
1280x534 | 59.940 fps | 6.7 Мбит/сек-- Аудио 1: AC3 | 6ch | 48 kHz | 640 kbps | 16 bit |Дублированный|
Аудио 2: AC3| 6ch | 48 kHz | 640 kbps | 16 bit |английский|

MedifInfo

Format : Matroska
Format version : Version 2
File size : 6.08 GiB
Duration : 1h 49mn
Overall bit rate : 7 984 Kbps
Movie name : Ученик чародея.(2010).BDRip.720p.[envy].[60fps]
Encoded date : UTC 2014-12-14 10:27:04
Writing application : mkvmerge v5.8.0 ('No Sleep / Pillow') built on Sep 2 2012 15:37:04
Writing library : libebml v1.2.3 + libmatroska v1.3.0
Video
ID : 1
Format : AVC
Format/Info : Advanced Video Codec
Format profile : High@L4.1
Format settings, CABAC : Yes
Format settings, ReFrames : 9 frames
Codec ID : V_MPEG4/ISO/AVC
Duration : 1h 49mn
Bit rate : 6 697 Kbps
Width : 1 280 pixels
Height : 534 pixels
Display aspect ratio : 2.40:1
Frame rate mode : Constant
Frame rate : 59.880 fps
Original frame rate : 59.940 fps
Color space : YUV
Chroma subsampling : 4:2:0
Bit depth : 8 bits
Scan type : Progressive
Bits/(Pixel*Frame) : 0.164
Stream size : 4.99 GiB (82%)
Writing library : x264 core 130 r2273 b3065e6
Encoding settings : cabac=1 / ref=9 / deblock=1:0:0 / analyse=0x3:0x133 / me=umh / subme=10 / psy=1 / psy_rd=1.00:0.00 / mixed_ref=1 / me_range=28 / chroma_me=1 / trellis=2 / 8x8dct=1 / cqm=0 / deadzone=21,11 / fast_pskip=0 / chroma_qp_offset=-2 / threads=12 / lookahead_threads=1 / sliced_threads=0 / nr=0 / decimate=1 / interlaced=0 / bluray_compat=0 / constrained_intra=0 / bframes=5 / b_pyramid=2 / b_adapt=2 / b_bias=0 / direct=3 / weightb=1 / open_gop=0 / weightp=2 / keyint=250 / keyint_min=25 / scenecut=40 / intra_refresh=0 / rc=2pass / mbtree=0 / bitrate=6697 / ratetol=1.0 / qcomp=0.60 / qpmin=0 / qpmax=69 / qpstep=4 / cplxblur=20.0 / qblur=0.5 / ip_ratio=1.40 / pb_ratio=1.30 / aq=2:0.90
Language : English
Default : Yes
Forced : No
Audio #1
ID : 2
Format : AC-3
Format/Info : Audio Coding 3
Mode extension : CM (complete main)
Format settings, Endianness : Big
Codec ID : A_AC3
Duration : 1h 49mn
Bit rate mode : Constant
Bit rate : 640 Kbps
Channel(s) : 6 channels
Channel positions : Front: L C R, Side: L R, LFE
Sampling rate : 48.0 KHz
Bit depth : 16 bits
Compression mode : Lossy
Stream size : 499 MiB (8%)
Title : Dub
Language : Russian
Default : Yes
Forced : No
Audio #2
ID : 3
Format : AC-3
Format/Info : Audio Coding 3
Mode extension : CM (complete main)
Format settings, Endianness : Big
Codec ID : A_AC3
Duration : 1h 49mn
Bit rate mode : Constant
Bit rate : 640 Kbps
Channel(s) : 6 channels
Channel positions : Front: L C R, Side: L R, LFE
Sampling rate : 48.0 KHz
Bit depth : 16 bits
Compression mode : Lossy
Stream size : 499 MiB (8%)
Title : Eng
Language : English
Default : No
Forced : No
Text #1
ID : 4
Format : UTF-8
Codec ID : S_TEXT/UTF8
Codec ID/Info : UTF-8 Plain Text
Title : forced
Language : Russian
Default : Yes
Forced : Yes
Text #2
ID : 5
Format : UTF-8
Codec ID : S_TEXT/UTF8
Codec ID/Info : UTF-8 Plain Text
Title : full
Language : Russian
Default : No
Forced : No
Text #3
ID : 6
Format : UTF-8
Codec ID : S_TEXT/UTF8
Codec ID/Info : UTF-8 Plain Text
Title : full
Language : English
Default : No
Forced : No
Menu
00:00:00.000 : en:The War Of The Sorcerers
00:04:11.168 : en:Field Trip To Areana Cabana
00:14:54.519 : en:Becky And Dave Reunite
00:20:58.716 : en:Horvath And Balthazar Return
00:25:27.985 : en:Balthazar Recruits Dave
00:31:09.326 : en:Chinatown
00:37:08.893 : en:"I'd Like To Learn More"
00:42:25.793 : en:Horvath Finds Drake
00:49:11.240 : en:Becky Stops By
00:53:41.301 : en:Bathroom Fight
00:57:56.139 : en:The Prime Merlinean
01:01:53.168 : en:A Mess In The Lab
01:07:04.270 : en:Dave Finds Becky Again
01:12:41.315 : en:Car Chase
01:17:24.849 : en:Veronica's Story
01:21:33.972 : en:Going After The Grimhold
01:25:44.806 : en:Dave Comes Clean With Becky
01:28:31.264 : en:The Rising
01:34:04.722 : en:Dave Joins The Fight
01:39:01.686 : en:Balthazar is Dead
01:42:38.819 : en:End Credits

[Цитировать]
Fragrance

ВоУ воу 720р ) берем)
 
Показать сообщения:    

Текущее время: 09-Дек 22:20

Часовой пояс: UTC + 3


Вы не можете начинать темы
Вы не можете отвечать на сообщения
Вы не можете редактировать свои сообщения
Вы не можете удалять свои сообщения
Вы не можете голосовать в опросах
Вы не можете прикреплять файлы к сообщениям
Вы не можете скачивать файлы