Тор: Рагнарёк / Thor: Ragnarok (2017) BDRip 1080p | 60 fps Стражи Галактики. Часть 2 / Guardians of the Galaxy Vol. 2 (2017) BDRip 1080p | 60 fps Мстители: Эра Альтрона / Avengers: Age of Ultron (2015) BDRip 1080p | 60 fps Валериан и город тысячи планет / Valerian and the City of a Thousand Planets (2017) BDRip 1080p | 60 fps Первый мститель: Противостояние / Captain America: Civil War (2016) BDRip 1080p | 60 fps Человек-паук: Возвращение домой / Spider-Man: Homecoming (2017) BDRip 1080p | 60 fps Мстители / The Avengers (2012) BDRip 720p | 60 fps Доктор Стрэндж / Doctor Strange (2016) BDRip 1080p | 60 fps
  1. Стаж:
    3 года 9 месяцев
    Сообщений:
    2369
    Пол:
    Мужской
    «Под подозрением каждый» Информация
    Название: Убийство в Восточном экспрессе
    Оригинальное название: Murder on the Orient Express
    Год выхода: 2017
    Жанр: Драма, биография
    Режиссер: Кеннет Брана
    Сценарий: Майкл Грин, Агата Кристи
    Продюсер: Уинстон Аццопарди, Кеннет Брана, Марк Гордон
    В ролях: Кеннет Брана, Пенелопа Крус, Уиллем Дефо, Джуди Денч, Джонни Депп, Джош Гэд, Дерек Джекоби, Лесли Одом мл., Мишель Пфайффер, Дэйзи Ридли, Том Бейтман, Марван Кензари, Оливия Колман, Люси Бойнтон, Мануэль Рульфо

    Сюжет:
    Эркюль Пуаро - величайший детектив в мире. Он бельгиец, любит измерять объем завтрака линейкой, невооруженным взглядом распознает мельчайшие шероховатости с достоверностью микроскопа и обладает скрытыми экстрасенсорными способностями. Очередное расследование ждет его в Лондоне, куда сыщик и направляется за казенный счет в теплом вагоне одного из самых комфортабельных поездов в Европе. Безмятежное путешествие в окружении милых, симпатичных попутчиков оборачивается бытовой поножовщиной при выключенном свете, закончившейся смертью одного из ее участников. Немного поломавшись для приличия, Пуаро берется в самые краткие сроки найти убийцу и распутать это гиблое дело, рискующее перерасти в одну из самых стильных и захватывающих загадок в его профессиональной карьере.

    Страна: США, Великобритания, Мальта, Франция, Канада, Новая Зеландия
    Продолжительность: 01:53:55

    Файл
    Кодек: H.264
    Формат: MKV
    Качество: BDRip 1080p | 60 fps
    Видео: 1920 x 800 (2.400) | 59.940 fps | 25.0 Мбит/сек
    Аудио 01: AC3 | 5.1 | 48 kHz | 384 kbps | 16 bit | Дубляж - iTunes |
    Аудио 02: AC3 | 2.0 | 48 kHz | 192 kbps | 16 bit | Любительский многоголосый - GreenРай Studio |
    Аудио 03: AC3 | 2.0 | 48 kHz | 192 kbps | 16 bit | Дубляж - Студия «Postmodern |
    Аудио 04: AC3 | 5.1 | 48 kHz | 448 kbps | 16 bit | english |
    Субтитры: английские

    MedifInfo

    Видео
    Идентификатор : 1
    Формат : AVC
    Формат/Информация : Advanced Video Codec
    Профиль формата : High@L4.1
    Параметр CABAC формата : Да
    Параметр ReFrames формата : 5 кадров
    Идентификатор кодека : V_MPEG4/ISO/AVC
    Продолжительность : 1 ч. 53 м.
    Битрейт : 25,0 Мбит/сек
    Ширина : 1920 пикселей
    Высота : 800 пикселей
    Соотношение сторон : 2,40:1
    Режим частоты кадров : Постоянный
    Частота кадров : 59,880 кадров/сек
    Частота кадров в оригинале : 59,940 кадров/сек
    Цветовое пространство : YUV
    Субдискретизация насыщенности : 4:2:0
    Битовая глубина : 8 бит
    Тип развёртки : Прогрессивная
    Бит/(Пиксели*Кадры) : 0.272
    Размер потока : 19,4 Гбайт (93%)
    Заголовок : www.60-fps.org
    Библиотека кодирования : x264 core 152 r2851 ba24899
    Настройки программы : cabac=1 / ref=5 / deblock=1:-3:-3 / analyse=0x3:0x113 / me=hex / subme=8 / psy=1 / psy_rd=1.00:0.25 / mixed_ref=1 / me_range=16 / chroma_me=1 / trellis=2 / 8x8dct=1 / cqm=0 / deadzone=6,6 / fast_pskip=1 / chroma_qp_offset=-4 / threads=12 / lookahead_threads=2 / sliced_threads=0 / nr=0 / decimate=0 / interlaced=0 / bluray_compat=0 / constrained_intra=0 / bframes=3 / b_pyramid=2 / b_adapt=1 / b_bias=0 / direct=3 / weightb=1 / open_gop=0 / weightp=2 / keyint=599 / keyint_min=59 / scenecut=40 / intra_refresh=0 / rc_lookahead=50 / rc=2pass / mbtree=1 / bitrate=24999 / ratetol=1.0 / qcomp=0.80 / qpmin=0 / qpmax=69 / qpstep=4 / cplxblur=20.0 / qblur=0.5 / vbv_maxrate=62500 / vbv_bufsize=78125 / nal_hrd=none / filler=0 / ip_ratio=1.10 / aq=1:0.50
    Default : Да
    Forced : Нет
    Аудио #1
    Идентификатор : 2
    Формат : AC-3
    Формат/Информация : Audio Coding 3
    Расширение режима : CM (complete main)
    Параметр Endianness формата : Big
    Идентификатор кодека : A_AC3
    Продолжительность : 1 ч. 53 м.
    Вид битрейта : Постоянный
    Битрейт : 384 Кбит/сек
    Каналы : 6 каналов
    Расположение каналов : Front: L C R, Side: L R, LFE
    Частота : 48,0 КГц
    Битовая глубина : 16 бит
    Метод сжатия : С потерями
    Размер потока : 313 Мбайт (1%)
    Заголовок : Дубляж - iTunes
    Язык : Russian
    Default : Нет
    Forced : Нет
    Аудио #2
    Идентификатор : 3
    Формат : AC-3
    Формат/Информация : Audio Coding 3
    Расширение режима : CM (complete main)
    Параметр Endianness формата : Big
    Идентификатор кодека : A_AC3
    Продолжительность : 1 ч. 53 м.
    Вид битрейта : Постоянный
    Битрейт : 192 Кбит/сек
    Каналы : 2 канала
    Расположение каналов : Front: L R
    Частота : 48,0 КГц
    Битовая глубина : 16 бит
    Метод сжатия : С потерями
    Размер потока : 156 Мбайт (1%)
    Заголовок : GreenРай Studio'
    Язык : Russian
    Default : Нет
    Forced : Нет
    Аудио #3
    Идентификатор : 4
    Формат : AC-3
    Формат/Информация : Audio Coding 3
    Расширение режима : CM (complete main)
    Параметр Endianness формата : Big
    Идентификатор кодека : A_AC3
    Продолжительность : 1 ч. 53 м.
    Вид битрейта : Постоянный
    Битрейт : 192 Кбит/сек
    Каналы : 2 канала
    Расположение каналов : Front: L R
    Частота : 48,0 КГц
    Битовая глубина : 16 бит
    Метод сжатия : С потерями
    Размер потока : 156 Мбайт (1%)
    Заголовок : Українська, 'Postmodern'
    Язык : Ukrainian
    Default : Нет
    Forced : Нет
    Аудио #4
    Идентификатор : 5
    Формат : AC-3
    Формат/Информация : Audio Coding 3
    Расширение режима : CM (complete main)
    Параметр Endianness формата : Big
    Идентификатор кодека : A_AC3
    Продолжительность : 1 ч. 53 м.
    Вид битрейта : Постоянный
    Битрейт : 448 Кбит/сек
    Каналы : 6 каналов
    Расположение каналов : Front: L C R, Side: L R, LFE
    Частота : 48,0 КГц
    Битовая глубина : 16 бит
    Метод сжатия : С потерями
    Размер потока : 365 Мбайт (2%)
    Заголовок : Original
    Язык : English
    Default : Нет
    Forced : Нет
    Текст
    Идентификатор : 6
    Формат : UTF-8
    Идентификатор кодека : S_TEXT/UTF8
    Идентификатор кодека/Информация : UTF-8 Plain Text
    Язык : English
    Default : Нет
    Forced : Нет
    Меню
    00:00:00.000 : en:00:00:00.000
    00:03:06.144 : en:00:03:06.144
    00:06:42.193 : en:00:06:42.193
    00:11:44.746 : en:00:11:44.746
    00:18:26.188 : en:00:18:26.188
    00:24:53.659 : en:00:24:53.659
    00:33:14.159 : en:00:33:14.159
    00:37:47.515 : en:00:37:47.515
    00:43:16.511 : en:00:43:16.511
    00:46:24.865 : en:00:46:24.865
    00:51:23.580 : en:00:51:23.580
    00:55:52.015 : en:00:55:52.015
    01:00:03.183 : en:01:00:03.183
    01:05:39.227 : en:01:05:39.227
    01:10:40.153 : en:01:10:40.153
    01:14:17.578 : en:01:14:17.578
    01:18:05.055 : en:01:18:05.055
    01:21:12.284 : en:01:21:12.284
    01:24:39.366 : en:01:24:39.366
    01:28:37.854 : en:01:28:37.854
    01:32:28.376 : en:01:32:28.376
    01:37:04.652 : en:01:37:04.652
    01:40:30.024 : en:01:40:30.024
    01:46:49.903 : en:01:46:49.903

    Релиз подготовлен 60 - fps



    Последний раз редактировалось: Kryl (2018-02-24 09:03), всего редактировалось 3 раз(а)
  2. Стаж:
    3 года 9 месяцев
    Сообщений:
    2369
    Пол:
    Мужской
    Добавлена дорожка Дубляж - iTunes
    24-Фев-2018 09:04 (спустя 6 дней)
  3. Стаж:
    2 месяца 10 дней
    Сообщений:
    11
    Пол:
    Не указан
    Раздайте пожалуйста
    23-Май-2018 16:34 (спустя 2 месяца 27 дней)


Вы не можете начинать темы
Вы не можете отвечать на сообщения
Вы не можете редактировать свои сообщения
Вы не можете удалять свои сообщения
Вы не можете голосовать в опросах
Вы не можете прикреплять файлы к сообщениям
Вы не можете скачивать файлы