[Цитировать]
Kryl

У холмов есть глаза / The Hills Have Eyes

«Счастлив тот, кто умрет первым»- Информация о фильме
Название: У холмов есть глаза
Оригинальное название: The Hills Have Eyes
Год выхода: 2006
Жанр: Ужасы, триллер
Режиссер: Александр Ажа
Сценарий: Александр Ажа, Грегори Левассёр, Уэс Крэйвен
Продюсер: Уэс Крэйвен, Питер Лок, Марианн Маддалена
В ролях: Аарон Стэнфорд, Кэтлин Куинлен, Винесса Шоу, Эмили де Рэвин, Дэн Берд, Том Бауэр, Билли Драго, Роберт Джой, Тед Левайн, Десмонд Аскью
--О фильме:
Путешествуя по Америке в доме на колесах, семейство Картеров, попав в аварию, оказывается в таинственной ядерной зоне, отрезанной от цивилизации. Однако со временем Картеры обнаруживают, что на этой вроде бы пустынной территории обитает кровожадная семейка мутантов, которые начинают вести охоту на них…- - Страна: США, Франция
Продолжительность: 01:48:26
-- Файл
Кодек: MPEG4/ISO/AVC H.264
Формат: MKV
Качество: BDRip-AVC
Видео: 1024x432 (2.35:1) | at 59,940 fps | ~ 4.5 Мбит/сек
Аудио: AC3 | 5.1 | 48 kHz | 448 kbps | 16 bit | Дубляж |

MedifInfo

Video
ID : 2
Format : AVC
Format/Info : Advanced Video Codec
Format profile : High@L4.1
Format settings, CABAC : Yes
Format settings, ReFrames : 9 frames
Codec ID : V_MPEG4/ISO/AVC
Duration : 1h 48mn
Bit rate : 4 500 Kbps
Width : 1 024 pixels
Height : 432 pixels
Display aspect ratio : 2.35:1
Frame rate : 59.940 fps
Color space : YUV
Chroma subsampling : 4:2:0
Bit depth : 8 bits
Scan type : Progressive
Bits/(Pixel*Frame) : 0.170
Stream size : 3.34 GiB (89%)
Writing library : x264 core 146 r2538 121396c
Encoding settings : cabac=1 / ref=9 / deblock=1:0:0 / analyse=0x3:0 / me=umh / subme=9 / psy=1 / psy_rd=0.00:0.00 / mixed_ref=1 / me_range=42 / chroma_me=0 / trellis=2 / 8x8dct=1 / cqm=0 / deadzone=21,11 / fast_pskip=0 / chroma_qp_offset=0 / threads=12 / lookahead_threads=3 / sliced_threads=0 / nr=0 / decimate=0 / interlaced=0 / bluray_compat=0 / constrained_intra=0 / bframes=16 / b_pyramid=2 / b_adapt=2 / b_bias=0 / direct=3 / weightb=1 / open_gop=0 / weightp=2 / keyint=250 / keyint_min=25 / scenecut=40 / intra_refresh=0 / rc=2pass / mbtree=0 / bitrate=4500 / ratetol=1.0 / qcomp=0.60 / qpmin=0 / qpmax=69 / qpstep=4 / cplxblur=20.0 / qblur=0.5 / ip_ratio=1.40 / pb_ratio=1.30 / aq=1:0.90
Language : English
Default : Yes
Forced : No
Audio
ID : 1
Format : AC-3
Format/Info : Audio Coding 3
Mode extension : CM (complete main)
Codec ID : A_AC3
Duration : 1h 48mn
Bit rate mode : Constant
Bit rate : 448 Kbps
Channel(s) : 6 channels
Channel positions : Front: L C R, Side: L R, LFE
Sampling rate : 48.0 KHz
Bit depth : 16 bits
Compression mode : Lossy
Stream size : 347 MiB (9%)
Language : Russian
Default : Yes
Forced : No

У холмов есть глаза 2 / The Hills Have Eyes II

«Повезет тому, кто умрет быстро...»- Информация о фильме
Название: У холмов есть глаза 2
Оригинальное название: The Hills Have Eyes II
Год выхода: 2007
Жанр: Ужасы, триллер
Режиссер: Мартин Вайз
Сценарий: Уэс Крэйвен, Джонатан Крэйвен
Продюсер: Уэс Крэйвен, Питер Лок, Марианн Маддалена
В ролях: Сесиль Брешиа, Майкл Бэйли Смит, Арчи Као, Джей Аковоне, Джефф Кобер, Филип Павел, Дэвид Рейнольдс, Тайрел Кемло, Ли Томпсон Янг, Даниэлла Алонсо
--О фильме:
Во время учений солдаты Национальной гвардии США делают привал на пограничной заставе в Нью-Мексико и, к своему удивлению, обнаруживают, что там никого нет. Получив сигнал тревоги, исходящий с отдаленной горной возвышенности, группа военных решает отправиться в этот район, чтобы помочь терпящим бедствие. Спасатели не знают, что это местечко когда-то посетила печально известная семья Картеров и что их поджидают кровожадные мутанты-каннибалы…- - Страна: США, Франция
Продолжительность: 01:48:26
-- Файл
Кодек: MPEG4/ISO/AVC H.264
Формат: MKV
Качество: BDRip-AVC
Видео: 1024x432 (2.35:1) | at 59,940 fps | ~ 5.5 Мбит/сек
Аудио: AC3 | 5.1 | 48 kHz | 640 kbps | 16 bit | Дубляж |

MedifInfo

Video
ID : 2
Format : AVC
Format/Info : Advanced Video Codec
Format profile : High@L4.1
Format settings, CABAC : Yes
Format settings, ReFrames : 9 frames
Codec ID : V_MPEG4/ISO/AVC
Duration : 1h 29mn
Bit rate : 5 556 Kbps
Width : 1 024 pixels
Height : 432 pixels
Display aspect ratio : 2.35:1
Frame rate : 59.940 fps
Color space : YUV
Chroma subsampling : 4:2:0
Bit depth : 8 bits
Scan type : Progressive
Bits/(Pixel*Frame) : 0.210
Stream size : 3.41 GiB (88%)
Writing library : x264 core 146 r2538 121396c
Encoding settings : cabac=1 / ref=9 / deblock=1:0:0 / analyse=0x3:0 / me=umh / subme=9 / psy=1 / psy_rd=0.00:0.00 / mixed_ref=1 / me_range=42 / chroma_me=0 / trellis=2 / 8x8dct=1 / cqm=0 / deadzone=21,11 / fast_pskip=0 / chroma_qp_offset=0 / threads=12 / lookahead_threads=3 / sliced_threads=0 / nr=0 / decimate=0 / interlaced=0 / bluray_compat=0 / constrained_intra=0 / bframes=16 / b_pyramid=2 / b_adapt=2 / b_bias=0 / direct=3 / weightb=1 / open_gop=0 / weightp=2 / keyint=250 / keyint_min=25 / scenecut=40 / intra_refresh=0 / rc=2pass / mbtree=0 / bitrate=5556 / ratetol=1.0 / qcomp=0.60 / qpmin=0 / qpmax=69 / qpstep=4 / cplxblur=20.0 / qblur=0.5 / ip_ratio=1.40 / pb_ratio=1.30 / aq=1:0.90
Language : English
Default : Yes
Forced : No
Audio
ID : 1
Format : AC-3
Format/Info : Audio Coding 3
Mode extension : CM (complete main)
Codec ID : A_AC3
Duration : 1h 29mn
Bit rate mode : Constant
Bit rate : 640 Kbps
Channel(s) : 6 channels
Channel positions : Front: L C R, Side: L R, LFE
Sampling rate : 48.0 KHz
Bit depth : 16 bits
Compression mode : Lossy
Stream size : 412 MiB (10%)
Default : Yes
Forced : No
 
Показать сообщения:    

Текущее время: 21-Сен 11:44

Часовой пояс: UTC + 3


Вы не можете начинать темы
Вы не можете отвечать на сообщения
Вы не можете редактировать свои сообщения
Вы не можете удалять свои сообщения
Вы не можете голосовать в опросах
Вы не можете прикреплять файлы к сообщениям
Вы не можете скачивать файлы