[Цитировать]
mimok

Турбо пацан / Turbo Kid (2015) BDRip 720p | 48fps«Coming Soon To a Wasteland Near You!»- Информация о фильме
Название: Турбо пацан
Оригинальное название: Turbo Kid
Год выхода: 2015
Жанр: Фантастика, боевик, приключения
Режиссер: Франсуа Симар
Продюсер: Бенуа Больё, Энн-Мари Желина, Тим Райли
В ролях: Манро Чэмберс, Лоранс Лебёф, Майкл Айронсайд, Эдвин Райт, Аарон Джеффри, Романо Орзари
Описание фильма:
Примерив костюм своего любимого героя комиксов, парнишка должен спасти новую странноватую подружку и положить конец правлению безумного тирана на просторах пост-апокалиптической пустоши.
Страна: Канада, США, Новая Зеландия
Студия: Epic Pictures Group, EMA Films
Продолжительность: 01:32:43
Перевод: Авторский (одноголосый, закадровый)
Субтитры:Отсутствуют

Дата мировой премьеры:26 января 2015
Файл
Формат: MKV
Кодек: MPEG-4 AVC/H.264
Качество: BDRip 720p
Видео: ~ 11.6 Мбит/сек, 1280 x 536, 48.000 кадров/сек
Аудио: Русский, AC3 5.1, 48.0 KHz, 640 Кбит/сек - Д. Есарев (Присутствует ненормативная лексика)

MediaInfo

Общее
Уникальный идентификатор : 240046652472073322655680447335517997881 (0xB4974DB907C15DB384E7C34011054B39)
Полное имя : E:\Торренты\Turbo Kid 48fps.mkv
Формат : Matroska
Версия формата : Version 2
Размер файла : 8,10 Гбайт
Продолжительность : 1 ч. 32 м.
Общий поток : 12,5 Мбит/сек
Дата кодирования : UTC 2016-02-29 10:15:22
Программа кодирования : mkvmerge v6.1.0 ('Old Devil') built on Mar 4 2013 09:10:42
Библиотека кодирования : libebml v1.3.0 + libmatroska v1.4.0
Видео
Идентификатор : 1
Формат : AVC
Формат/Информация : Advanced Video Codec
Профиль формата : High@L4.1
Параметр CABAC формата : Да
Параметр ReFrames формата : 6 кадров
Идентификатор кодека : V_MPEG4/ISO/AVC
Продолжительность : 1 ч. 32 м.
Битрейт : 11,6 Мбит/сек
Ширина : 1280 пикселей
Высота : 536 пикселей
Соотношение сторон : 2,40:1
Режим частоты кадров : Постоянный
Частота кадров : 48,000 кадров/сек
Цветовое пространство : YUV
Субдискретизация насыщенности : 4:2:0
Битовая глубина : 8 бит
Тип развёртки : Прогрессивная
Бит/(Пиксели*Кадры) : 0.353
Размер потока : 7,52 Гбайт (93%)
Библиотека кодирования : x264 core 130 r2273 b3065e6
Настройки программы : cabac=1 / ref=6 / deblock=1:0:0 / analyse=0x3:0x133 / me=umh / subme=8 / psy=1 / psy_rd=1.00:0.15 / mixed_ref=1 / me_range=20 / chroma_me=1 / trellis=2 / 8x8dct=1 / cqm=0 / deadzone=21,11 / fast_pskip=0 / chroma_qp_offset=-3 / threads=6 / lookahead_threads=2 / sliced_threads=0 / nr=0 / decimate=0 / interlaced=0 / bluray_compat=0 / constrained_intra=0 / bframes=8 / b_pyramid=2 / b_adapt=2 / b_bias=0 / direct=1 / weightb=1 / open_gop=0 / weightp=2 / keyint=250 / keyint_min=25 / scenecut=40 / intra_refresh=0 / rc=crf / mbtree=0 / crf=18.0 / qcomp=0.63 / qpmin=10 / qpmax=51 / qpstep=4 / ip_ratio=1.40 / pb_ratio=1.30 / aq=1:1.20
Default : Да
Forced : Нет
Аудио
Идентификатор : 2
Формат : AC-3
Формат/Информация : Audio Coding 3
Расширение режима : CM (complete main)
Параметр Endianness формата : Big
Идентификатор кодека : A_AC3
Продолжительность : 1 ч. 32 м.
Вид битрейта : Постоянный
Битрейт : 640 Кбит/сек
Каналы : 6 каналов
Расположение каналов : Front: L C R, Side: L R, LFE
Частота : 48,0 КГц
Частота кадров : 31,250 кадров/сек (1536 spf)
Метод сжатия : С потерями
Размер потока : 424 Мбайт (5%)
Default : Да
Forced : Нет
Скриншоты:

Релиз подготовлен 60 - fps

 
Показать сообщения:    

Текущее время: 08-Дек 09:01

Часовой пояс: UTC + 3


Вы не можете начинать темы
Вы не можете отвечать на сообщения
Вы не можете редактировать свои сообщения
Вы не можете удалять свои сообщения
Вы не можете голосовать в опросах
Вы не можете прикреплять файлы к сообщениям
Вы не можете скачивать файлы