[Цитировать]
Kryl

«The extraordinary true story of the woman who crossed the desert and changed the world»- Информация о фильме
Название: Цветок пустыни
Оригинальное название: Desert Flower
Год выхода: 2009
Жанр: Драма, биография
Режиссер: Шерри Хорман
Сценарий: Смита Бхайд, Шерри Хорман, Вюстенблум
Продюсер: Петер Герман, Мартин Брюс-Клейтон, Варис Дирие
В ролях: Лия Кебеде, Салли Хокинс, Крейг Паркинсон, Мира Сайал, Энтони Маки, Джульет Стивенсон, Тимоти Сполл
--О фильме:
История Варис Дирие — простой девочки-кочевницы из Сомали. В 13 лет она сбежала из семьи, добралась до Могадишо, а потом оказалась в Лондоне. Через несколько лет ей удалось стать одной из популярнейших моделей мира.
Варис не была первой темнокожей топ-моделью, но она стала первой женщиной, которая публично осудила практику женского обрезания, была назначена специальным послом ООН и создала Фонд по борьбе с FGM.
- - Страна: Великобритания, Германия, Австрия
Продолжительность: 02:09:39
-- Файл
Кодек: MPEG4/ISO/AVC H.264
Формат: MKV
Качество: BDRip 720p (исходник Blu-ray Disc Remux)
Видео: 1280x694 | 60.000 fps | 8.9 Мбит/сек
Аудио 1: AC3 | 5.1 | 48 kHz | 448 kbps | 16 bit | Одноголосый закадровый, The LEXX |
Аудио 2: AC3 | 5.1 | 48 kHz | 448 kbps | 16 bit | Одноголосый закадровый, Anubis |
Аудио 3: AC3 | 5.1 | 48 kHz | 640 kbps | 16 bit | Оригинал |
Субтитры: Русские, Английские (на сомалийскую речь)

MedifInfo

Video
ID : 1
Format : AVC
Format/Info : Advanced Video Codec
Format profile : High@L4.1
Format settings, CABAC : Yes
Format settings, ReFrames : 9 frames
Codec ID : V_MPEG4/ISO/AVC
Duration : 2h 9mn
Bit rate : 8 980 Kbps
Width : 1 280 pixels
Height : 694 pixels
Display aspect ratio : 1.85:1
Frame rate mode : Constant
Frame rate : 60.000 fps
Color space : YUV
Chroma subsampling : 4:2:0
Bit depth : 8 bits
Scan type : Progressive
Bits/(Pixel*Frame) : 0.168
Stream size : 8.13 GiB (84%)
Title : Цветок пустыни.(2009).BDRip.720p.[envy].[60fps]
Writing library : x264 core 146 r2538 121396c
Encoding settings : cabac=1 / ref=9 / deblock=1:0:0 / analyse=0x3:0x113 / me=umh / subme=10 / psy=1 / psy_rd=1.00:0.00 / mixed_ref=1 / me_range=24 / chroma_me=1 / trellis=2 / 8x8dct=1 / cqm=0 / deadzone=21,11 / fast_pskip=1 / chroma_qp_offset=-2 / threads=12 / lookahead_threads=1 / sliced_threads=0 / nr=0 / decimate=1 / interlaced=0 / bluray_compat=0 / constrained_intra=0 / bframes=6 / b_pyramid=2 / b_adapt=2 / b_bias=0 / direct=3 / weightb=1 / open_gop=0 / weightp=2 / keyint=250 / keyint_min=25 / scenecut=40 / intra_refresh=0 / rc_lookahead=40 / rc=crf / mbtree=0 / crf=18.0 / qcomp=0.60 / qpmin=0 / qpmax=69 / qpstep=4 / vbv_maxrate=14000 / vbv_bufsize=14000 / crf_max=0.0 / nal_hrd=none / filler=0 / ip_ratio=1.40 / pb_ratio=1.30 / aq=3:1.00
Language : English
Default : Yes
Forced : No
Audio #1
ID : 2
Format : AC-3
Format/Info : Audio Coding 3
Mode extension : CM (complete main)
Format settings, Endianness : Big
Codec ID : A_AC3
Duration : 2h 9mn
Bit rate mode : Constant
Bit rate : 448 Kbps
Channel(s) : 6 channels
Channel positions : Front: L C R, Side: L R, LFE
Sampling rate : 48.0 KHz
Compression mode : Lossy
Stream size : 415 MiB (4%)
Title : VO The LEXX
Language : Russian
Default : Yes
Forced : No
Audio #2
ID : 3
Format : AC-3
Format/Info : Audio Coding 3
Mode extension : CM (complete main)
Format settings, Endianness : Big
Codec ID : A_AC3
Duration : 2h 9mn
Bit rate mode : Constant
Bit rate : 448 Kbps
Channel(s) : 6 channels
Channel positions : Front: L C R, Side: L R, LFE
Sampling rate : 48.0 KHz
Compression mode : Lossy
Stream size : 415 MiB (4%)
Title : VO Anubis
Language : Russian
Default : No
Forced : No
Audio #3
ID : 4
Format : AC-3
Format/Info : Audio Coding 3
Mode extension : CM (complete main)
Format settings, Endianness : Big
Codec ID : A_AC3
Duration : 2h 9mn
Bit rate mode : Constant
Bit rate : 640 Kbps
Channel(s) : 6 channels
Channel positions : Front: L C R, Side: L R, LFE
Sampling rate : 48.0 KHz
Compression mode : Lossy
Stream size : 594 MiB (6%)
Title : Eng
Language : English
Default : No
Forced : No
Text #1
ID : 5
Format : UTF-8
Codec ID : S_TEXT/UTF8
Codec ID/Info : UTF-8 Plain Text
Title : Rus forced for Somalia
Language : Russian
Default : Yes
Forced : Yes
Text #2
ID : 6
Format : UTF-8
Codec ID : S_TEXT/UTF8
Codec ID/Info : UTF-8 Plain Text
Title : Rus full
Language : Russian
Default : No
Forced : No
Text #3
ID : 7
Format : UTF-8
Codec ID : S_TEXT/UTF8
Codec ID/Info : UTF-8 Plain Text
Title : Eng forced for Somalia
Language : English
Default : No
Forced : No
Menu
00:00:00.000 : :Chapter 01
00:05:28.416 : :Chapter 02
00:11:17.000 : :Chapter 03
00:19:56.958 : :Chapter 04
00:28:40.708 : :Chapter 05
00:39:23.083 : :Chapter 06
00:51:09.458 : :Chapter 07
01:01:38.041 : :Chapter 08
01:09:07.916 : :Chapter 09
01:18:19.333 : :Chapter 10
01:22:28.791 : :Chapter 11
01:30:06.750 : :Chapter 12
01:36:27.625 : :Chapter 13
01:43:55.125 : :Chapter 14
01:52:27.500 : :Chapter 15
02:01:32.833 : :Chapter 16
[60-fps.org].t1030.torrent
Торрент: Зарегистрирован [ 2015-09-01 14:02 ] · 59AA64EE437570B0DFE63ECB06E531DB6238E813

Скачать .torrent

Скачать

49 KB

Статус: проверено
Скачан: 10 раз
Поблагодарили:
Размер: 9,72 GB
 
Похожие Темы
 
Показать сообщения:    

Текущее время: 24-Фев 02:23

Часовой пояс: UTC + 3


Вы не можете начинать темы
Вы не можете отвечать на сообщения
Вы не можете редактировать свои сообщения
Вы не можете удалять свои сообщения
Вы не можете голосовать в опросах
Вы не можете прикреплять файлы к сообщениям
Вы можете скачивать файлы