[Цитировать]
mimok

Центурион / Centurion (2010) BDRip 720p | 60fps«Сражайся или умри» Год выпуска: 2010
Производство: Великобритания, Франция / Celador Films
Жанр: Боевик, Триллер, Драма, Приключения, Военный, История
Режиссер: Нил Маршалл
Продюсер: Кристиан Колсон, Роберт Джонс, Франсуа Ивернель
Актеры: Майкл Фассбендер, Ольга Куриленко, Доминик Уэст, Джей Джей Филд, Андреас Висневски, Дэвид Леджено, Аксель Кэролин, Ноэль Кларк, Ли Росс, Дэвид Моррисси
Описание фильма:
Действие разворачивается в 117 году нашей эры. Главный герой — Квинтус Диас — единственный человек, уцелевший после налёта пиктов на пограничную римскую крепость. Вместе с легендарным Девятым легионом он отправляется на север, чтобы стереть с лица земли пиктов и уничтожить их предводителя, Горлакона.
Перевод: Дублированный (Лицензия)
Субтитры: Отсутствуют

Дата мировой премьеры: 15 февраля 2010
Дата российской премьеры: 29 июля 2010, «Централ Партнершип»
Дата выхода DVD релиза: 26 августа 2010, «Новый Диск»
Дата выхода Blu-Ray релиза: 9 сентября 2010, «Новый Диск»
Продолжительность: 01:37:30
Качество видео: BDRip 720p
Видеокодек: MPEG-4 AVC/H.264
Битрейт видео: ~ 9319 Кбит/сек
Размер кадра: 1280 x 552
Аудио: AC3 5.1, 48.0 KHz, 640 Kbps - Русский
MediaInfo:
Общее
Уникальный идентификатор : 184556781889229320081447117116215286866 (0x8AD857E069BC3BB0967805C420A65C52)
Полное имя : D:\Торренты\Centurion 60fps.mkv
Формат : Matroska
Версия формата : Version 2
Размер файла : 6,92 Гбайт
Продолжительность : 1 ч. 37 м.
Общий поток : 10,2 Мбит/сек
Название фильма : Centurion (2010) Blu-ray 1080p AVC DTS-HD 7.1
Дата кодирования : UTC 2014-10-16 15:48:34
Программа кодирования : mkvmerge v6.9.1 ('Blue Panther') 64bit built on Apr 18 2014 18:23:38
Библиотека кодирования : libebml v1.3.0 + libmatroska v1.4.1
Видео
Идентификатор : 1
Формат : AVC
Формат/Информация : Advanced Video Codec
Профиль формата : High@L4.1
Параметр CABAC формата : Да
Параметр ReFrames формата : 6 кадров
Идентификатор кодека : V_MPEG4/ISO/AVC
Продолжительность : 1 ч. 37 м.
Битрейт : 9319 Кбит/сек
Ширина : 1280 пикселей
Высота : 552 пикселя
Соотношение сторон : 2,35:1
Режим частоты кадров : Постоянный
Частота кадров : 59,880 кадров/сек
Частота кадров в оригинале : 59,940 кадров/сек
Цветовое пространство : YUV
Субдискретизация насыщенности : 4:2:0
Битовая глубина : 8 бит
Тип развёртки : Прогрессивная
Бит/(Пиксели*Кадры) : 0.220
Размер потока : 6,35 Гбайт (92%)
Заголовок : Release by mimok
Библиотека кодирования : x264 core 125 r2208 d9d2288
Настройки программы : cabac=1 / ref=6 / deblock=0:0:0 / analyse=0x3:0x133 / me=umh / subme=8 / psy=1 / psy_rd=1.00:0.15 / mixed_ref=1 / me_range=20 / chroma_me=1 / trellis=2 / 8x8dct=1 / cqm=0 / deadzone=21,11 / fast_pskip=0 / chroma_qp_offset=-3 / threads=6 / lookahead_threads=1 / sliced_threads=0 / nr=0 / decimate=0 / interlaced=0 / bluray_compat=0 / constrained_intra=0 / bframes=8 / b_pyramid=2 / b_adapt=2 / b_bias=0 / direct=1 / weightb=1 / open_gop=0 / weightp=2 / keyint=600 / keyint_min=59 / scenecut=40 / intra_refresh=0 / rc=crf / mbtree=0 / crf=16.0 / qcomp=0.63 / qpmin=10 / qpmax=51 / qpstep=4 / ip_ratio=1.40 / pb_ratio=1.30 / aq=1:1.20
Default : Да
Forced : Нет
Аудио
Идентификатор : 2
Формат : AC-3
Формат/Информация : Audio Coding 3
Расширение режима : CM (complete main)
Параметр Endianness формата : Big
Идентификатор кодека : A_AC3
Продолжительность : 1 ч. 37 м.
Вид битрейта : Постоянный
Битрейт : 640 Кбит/сек
Каналы : 6 каналов
Расположение каналов : Front: L C R, Side: L R, LFE
Частота : 48,0 КГц
Битовая глубина : 16 бит
Метод сжатия : С потерями
Размер потока : 446 Мбайт (6%)
Заголовок : Лицензия
Язык : Russian
Default : Да
Forced : Нет
Скринлист:
Скриншоты:

Релиз подготовлен 60 - fps

[Цитировать]
RogerJunior

Ребят фильм мало того,что великолепен! Учитывая игру Майкла Фассбендера и нашей Оленьки.Так ещё и качество на супер высоте!всем советую,не пожалеете! 60 фпс это нечто!))) Релизеру низкий поклон до земли! спасибо ЧЕЛОВЕК! давно искал именно в 60 фпс! Привет
 
Показать сообщения:    

Текущее время: 03-Дек 16:44

Часовой пояс: UTC + 3


Вы не можете начинать темы
Вы не можете отвечать на сообщения
Вы не можете редактировать свои сообщения
Вы не можете удалять свои сообщения
Вы не можете голосовать в опросах
Вы не можете прикреплять файлы к сообщениям
Вы не можете скачивать файлы