[Цитировать]
Kryl

«Ошибка оказалась смертельной»- Информация
Название: Труп невесты
Оригинальное название: Corpse Bride
Год выхода: 2005
Жанр: Мультфильм, мюзикл, фэнтези, мелодрама
Режиссер: Тим Бёртон, Майк Джонсон
Сценарий: Джон Огаст, Кэролайн Томпсон, Памела Петтлер
Продюсер: Эллисон Эббейт, Тим Бёртон, Джеффри Ауэрбах
Персонажей озвучивали: Джонни Депп, Хелена Бонем Картер, Эмили Уотсон, Трейси Уллмен, Пол Уайтхаус, Джоанна Ламли, Альберт Финни, Ричард Э. Грант, Кристофер Ли, Майкл Гоф
--Сюжет:
Действие развивается в европейской деревушке XIX века. Главного героя — молодого человека Виктора — силы тьмы утаскивают в преисподнюю и женят там на таинственном Трупе Невесты, в то время как его настоящая невеста Виктория ожидает своего жениха в мире живых. Несмотря на то, что проживание в Царстве мертвых оказывается много интересней, чем его привычный викторианский образ жизни, Виктор понимает, что свою единственную любовь он не променяет ни на что ни в одном из альтернативных миров…- - Страна: Великобритания, США
Продолжительность: 01:17:12

Файл
Кодек: MPEG4/ISO/AVC H.264
Формат: MKV
Качество: WEBRip 720p 60 fps
Видео: 1280 x 720 (1.778) | 59.940 fps | 10.0 Мбит/сек
Аудио 1: AC3 | 5.1 | 48 kHz | 384 kbps | 16 bit | Дубляж |
Аудио 2: AC3 | 5.1 | 48 kHz | 448 kbps | 16 bit | Двухголосый закадровый, Tycoon |
Аудио 3: AC3 | 5.1 | 48 kHz | 384 kbps | 16 bit | Одноголосый закадровый, А. Гаврилов |
Аудио 4: AC3 | 5.1 | 48 kHz | 640 kbps | 16 bit | ENG |
Субтитры: Russian (Tycoon), Russian, English, French, Spanish

MedifInfo

Видео
Идентификатор : 1
Формат : AVC
Формат/Информация : Advanced Video Codec
Профиль формата : High@L4.1
Параметр CABAC формата : Да
Параметр ReFrames формата : 3 кадра
Идентификатор кодека : V_MPEG4/ISO/AVC
Продолжительность : 1 ч. 17 м.
Вид битрейта : Переменный
Битрейт : 9645 Кбит/сек
Максимальный битрейт : 10000 Кбит/сек
Ширина : 1280 пикселей
Высота : 720 пикселей
Соотношение сторон : 16:9
Режим частоты кадров : Постоянный
Частота кадров : 59,880 кадров/сек
Частота кадров в оригинале : 59,940 кадров/сек
Стандарт вещания : PAL
Цветовое пространство : YUV
Субдискретизация насыщенности : 4:2:0
Битовая глубина : 8 бит
Тип развёртки : Прогрессивная
Бит/(Пиксели*Кадры) : 0.175
Размер потока : 5,20 Гбайт (82%)
Заголовок : www.60-fps.org
Язык : English
Default : Да
Forced : Нет
Основные цвета : BT.709
Характеристики трансфера : BT.709
Коэффициенты матрицы : BT.709
colour_range : Limited
Аудио #1
Идентификатор : 2
Формат : AC-3
Формат/Информация : Audio Coding 3
Расширение режима : CM (complete main)
Параметр Endianness формата : Big
Идентификатор кодека : A_AC3
Продолжительность : 1 ч. 17 м.
Вид битрейта : Постоянный
Битрейт : 384 Кбит/сек
Каналы : 6 каналов
Расположение каналов : Front: L C R, Side: L R, LFE
Частота : 48,0 КГц
Битовая глубина : 16 бит
Метод сжатия : С потерями
Размер потока : 212 Мбайт (3%)
Заголовок : AC3 5.1 @ 384 kbps - Dub
Язык : Russian
Default : Да
Forced : Нет
Аудио #2
Идентификатор : 3
Формат : AC-3
Формат/Информация : Audio Coding 3
Расширение режима : CM (complete main)
Параметр Endianness формата : Big
Идентификатор кодека : A_AC3
Продолжительность : 1 ч. 17 м.
Вид битрейта : Постоянный
Битрейт : 448 Кбит/сек
Каналы : 6 каналов
Расположение каналов : Front: L C R, Side: L R, LFE
Частота : 48,0 КГц
Битовая глубина : 16 бит
Метод сжатия : С потерями
Размер потока : 247 Мбайт (4%)
Заголовок : AC3 5.1 @ 448 kbps - DVO, Tycoon
Язык : Russian
Default : Нет
Forced : Нет
Аудио #3
Идентификатор : 4
Формат : AC-3
Формат/Информация : Audio Coding 3
Расширение режима : CM (complete main)
Параметр Endianness формата : Big
Идентификатор кодека : A_AC3
Продолжительность : 1 ч. 17 м.
Вид битрейта : Постоянный
Битрейт : 384 Кбит/сек
Каналы : 6 каналов
Расположение каналов : Front: L C R, Side: L R, LFE
Частота : 48,0 КГц
Битовая глубина : 16 бит
Метод сжатия : С потерями
Размер потока : 212 Мбайт (3%)
Заголовок : AC3 5.1 @ 384 kbps - VO, Gavrilov
Язык : Russian
Default : Нет
Forced : Нет
Аудио #4
Идентификатор : 5
Формат : AC-3
Формат/Информация : Audio Coding 3
Расширение режима : CM (complete main)
Параметр Endianness формата : Big
Идентификатор кодека : A_AC3
Продолжительность : 1 ч. 17 м.
Вид битрейта : Постоянный
Битрейт : 640 Кбит/сек
Каналы : 6 каналов
Расположение каналов : Front: L C R, Side: L R, LFE
Частота : 48,0 КГц
Битовая глубина : 16 бит
Метод сжатия : С потерями
Размер потока : 353 Мбайт (5%)
Заголовок : AC3 EX 5.1 @ 640 kbps- ENG
Язык : English
Default : Нет
Forced : Нет
Текст #1
Идентификатор : 6
Формат : UTF-8
Идентификатор кодека : S_TEXT/UTF8
Идентификатор кодека/Информация : UTF-8 Plain Text
Заголовок : Tycoon
Язык : Russian
Default : Нет
Forced : Нет
Текст #2
Идентификатор : 7
Формат : UTF-8
Идентификатор кодека : S_TEXT/UTF8
Идентификатор кодека/Информация : UTF-8 Plain Text
Язык : Russian
Default : Нет
Forced : Нет
Текст #3
Идентификатор : 8
Формат : UTF-8
Идентификатор кодека : S_TEXT/UTF8
Идентификатор кодека/Информация : UTF-8 Plain Text
Язык : English
Default : Нет
Forced : Нет
Текст #4
Идентификатор : 9
Формат : UTF-8
Идентификатор кодека : S_TEXT/UTF8
Идентификатор кодека/Информация : UTF-8 Plain Text
Язык : English
Default : Нет
Forced : Нет
Текст #5
Идентификатор : 10
Формат : UTF-8
Идентификатор кодека : S_TEXT/UTF8
Идентификатор кодека/Информация : UTF-8 Plain Text
Язык : French
Default : Нет
Forced : Нет
Текст #6
Идентификатор : 11
Формат : UTF-8
Идентификатор кодека : S_TEXT/UTF8
Идентификатор кодека/Информация : UTF-8 Plain Text
Язык : Spanish
Default : Нет
Forced : Нет
Меню
00:00:00.000 : en:Credits
00:02:21.307 : en:According to Plan
00:06:29.389 : en:What Impropriety!
00:10:46.145 : en:Underrehearsed
00:14:31.203 : en:Corpse Bride
00:18:53.966 : en:Wedding Feast
00:20:32.731 : en:Remains of the Day
00:23:58.770 : en:Fugitive Groom
00:27:20.805 : en:Scraps
00:30:27.659 : en:Ukrainian Haunting Spell
00:33:22.166 : en:Bad Feelings
00:36:17.508 : en:The Other Woman'
00:39:53.390 : en:Tears to Shed
00:43:21.098 : en:No Help for Victoria
00:46:19.943 : en:A Wedding After All
00:48:54.598 : en:Duet for Roving Hand
00:52:02.953 : en:Picking Up the Pieces
00:54:50.453 : en:Corpse Groom Required
00:56:57.080 : en:The Wedding Song
01:00:15.445 : en:Reunions
01:03:45.488 : en:His Two Brides
01:07:41.057 : en:Duel to the Death
01:11:12.101 : en:Set Free
01:13:26.402 : en:End Credits

Релиз подготовлен 60 - fps

 
Показать сообщения:    

Текущее время: 08-Дек 09:04

Часовой пояс: UTC + 3


Вы не можете начинать темы
Вы не можете отвечать на сообщения
Вы не можете редактировать свои сообщения
Вы не можете удалять свои сообщения
Вы не можете голосовать в опросах
Вы не можете прикреплять файлы к сообщениям
Вы не можете скачивать файлы