[Цитировать]
Kryl

--Тройной форсаж: Токийский дрифт / The Fast and the Furious: Tokyo Drift
(2006) BDRip 720p от NNNB | 60 fps
--Информация о фильме
Название: Тройной форсаж: Токийский дрифт
Оригинальное название: The Fast and the Furious: Tokyo Drif
Год выхода: 2009
Жанр: боевик, триллер, драма, криминал
Режиссер: Джастин Лин
Страна: США
Продолжительность: 01:44:14
Перевод: Дублированный
Роли озвучивали: Лукас Блэк, Брэндан Брэндэл, Зэкери Тай Брайан, Дэниел Буко, Лэвид В. Томас, Амбер Стивенс, Бау Вау
--О фильме:
Шон Босуэлл всегда был изгоем. Его единственной страстью были незаконные уличные гонки. Чтобы не загреметь в тюрьму, Шон отправляется жить к своему отцу-военному, арендующему квартирку на задворках Токио. Но в стране, породившей немало отчаянных гонщиков, Шон обнаруживает, что стрит-рейсинг перерос в новую, смертельно опасную забаву, дрифт-рейсинг: гонки на безумных скоростях по невероятным трассам. Проиграв в первом же раунде "Королю Дрифтинга", связанного с Якудза, Шон должен погасить свой долг, окунувшись в смертельно опасный мир нелегальных гонок Токио, где на кону стоят жизнь и смерть.- -Файл
Кодек: MPEG4/ISO/AVCH.264
Формат: MKV
Качество: BDRip 720p (исходник Blu-ray Disc)
Видео: 1280x544, 5410 Кбит/сек, 59.940 кадр/сек, AVC, x264, High@L4.1, 2.35:1, 0.130 Бит/[Пиксели*Кадры]
Аудио 1: AC-3, 448 Кбит/сек, 6 канала(ов), 48,0 КГц - Дублированный / Русский
Аудио 2: AC-3, 640 Кбит/сек, 6 канала(ов), 48,0 КГц - Оригинал / Английский
Субтитры: Русские | Полные, Английские | Полные
-

MI

Format : Matroska
Format version : Version 2
File size : 4.72 GiB
Duration : 1h 44mn
Overall bit rate : 6 481 Kbps
Movie name : Тройной форсаж: Токийский дрифт.(2006).BDRip.720p.[envy].[60fps]
Encoded date : UTC 2014-11-04 08:31:30
Writing application : mkvmerge v5.8.0 ('No Sleep / Pillow') built on Sep 2 2012 15:37:04
Writing library : libebml v1.2.3 + libmatroska v1.3.0
Video
ID : 1
Format : AVC
Format/Info : Advanced Video Codec
Format profile : High@L4.1
Format settings, CABAC : Yes
Format settings, ReFrames : 9 frames
Codec ID : V_MPEG4/ISO/AVC
Duration : 1h 44mn
Bit rate : 5 410 Kbps
Width : 1 280 pixels
Height : 544 pixels
Display aspect ratio : 2.35:1
Frame rate mode : Constant
Frame rate : 59.880 fps
Original frame rate : 59.940 fps
Color space : YUV
Chroma subsampling : 4:2:0
Bit depth : 8 bits
Scan type : Progressive
Bits/(Pixel*Frame) : 0.130
Stream size : 3.83 GiB (81%)
Title : Тройной форсаж: Токийский дрифт.(2006).BDRip.720p.[envy].[60fps]
Writing library : x264 core 130 r2273 b3065e6
Encoding settings : cabac=1 / ref=9 / deblock=1:0:0 / analyse=0x3:0x133 / me=umh / subme=10 / psy=1 / psy_rd=1.00:0.00 / mixed_ref=1 / me_range=24 / chroma_me=1 / trellis=2 / 8x8dct=1 / cqm=0 / deadzone=21,11 / fast_pskip=0 / chroma_qp_offset=-2 / threads=12 / lookahead_threads=1 / sliced_threads=0 / nr=0 / decimate=1 / interlaced=0 / bluray_compat=0 / constrained_intra=0 / bframes=5 / b_pyramid=2 / b_adapt=2 / b_bias=0 / direct=3 / weightb=1 / open_gop=0 / weightp=2 / keyint=250 / keyint_min=25 / scenecut=40 / intra_refresh=0 / rc=2pass / mbtree=0 / bitrate=5410 / ratetol=1.0 / qcomp=0.60 / qpmin=0 / qpmax=69 / qpstep=4 / cplxblur=20.0 / qblur=0.5 / ip_ratio=1.40 / pb_ratio=1.30 / aq=2:1.00
Language : English
Default : Yes
Forced : No
Audio #1
ID : 2
Format : AC-3
Format/Info : Audio Coding 3
Mode extension : CM (complete main)
Format settings, Endianness : Big
Codec ID : A_AC3
Duration : 1h 44mn
Bit rate mode : Constant
Bit rate : 448 Kbps
Channel(s) : 6 channels
Channel positions : Front: L C R, Side: L R, LFE
Sampling rate : 48.0 KHz
Bit depth : 16 bits
Compression mode : Lossy
Stream size : 334 MiB (7%)
Title : Dub
Language : Russian
Default : Yes
Forced : No
Audio #2
ID : 3
Format : AC-3
Format/Info : Audio Coding 3
Mode extension : CM (complete main)
Format settings, Endianness : Big
Codec ID : A_AC3
Duration : 1h 44mn
Bit rate mode : Constant
Bit rate : 640 Kbps
Channel(s) : 6 channels
Channel positions : Front: L C R, Side: L R, LFE
Sampling rate : 48.0 KHz
Bit depth : 16 bits
Compression mode : Lossy
Stream size : 477 MiB (10%)
Title : Eng
Language : English
Default : No
Forced : No
Text #1
ID : 4
Format : UTF-8
Codec ID : S_TEXT/UTF8
Codec ID/Info : UTF-8 Plain Text
Title : full
Language : Russian
Default : No
Forced : No
Text #2
ID : 5
Format : UTF-8
Codec ID : S_TEXT/UTF8
Codec ID/Info : UTF-8 Plain Text
Title : full
Language : English
Default : No
Forced : No
Menu
00:00:00.000 : en:Main Titles
00:03:04.434 : en:Winner Take All
00:09:43.499 : en:Off the Streets
00:12:10.688 : en:Stick to the Rules
00:16:15.391 : en:First Day in Class
00:20:16.840 : en:My Ride
00:26:36.469 : en:DK Challenge
00:32:56.849 : en:No Choice
00:41:14.305 : en:Represent
00:46:34.833 : en:Trust & Character
00:52:55.255 : en:Feel It
00:58:20.121 : en:Drifting Fate
01:01:46.244 : en:Gaijin
01:05:50.488 : en:For Want
01:08:56.090 : en:It's What We Do
01:16:14.611 : en:My Mess
01:20:31.409 : en:Peaceful Resolution
01:26:53.249 : en:To the Finish
01:34:59.944 : en:An Old Friend
01:37:33.848 : en:End Titles
-
 
Показать сообщения:    

Текущее время: 07-Дек 19:19

Часовой пояс: UTC + 3


Вы не можете начинать темы
Вы не можете отвечать на сообщения
Вы не можете редактировать свои сообщения
Вы не можете удалять свои сообщения
Вы не можете голосовать в опросах
Вы не можете прикреплять файлы к сообщениям
Вы не можете скачивать файлы