«For Troy»- Информация
Название: Троя
Оригинальное название: Troy
Год выхода: 2004
Жанр: боевик, драма, мелодрама, история
Режиссер: Вольфганг Петерсен
Сценарий: Гомер, Дэвид Бениофф
Продюсер: Вольфганг Петерсен, Диана Рэтбан, Колин Уилсон
В ролях: Брэд Питт, Эрик Бана, Орландо Блум, Брайан Кокс, Дайан Крюгер, Брендан Глисон, Шон Бин, Джули Кристи, Питер О’Тул, Роуз Бирн, Винсент Риган, Саффрон Берроуз, Гаррет Хедлунд, Джеймс Космо, Овайн Йомэн, Джулиан Гловер, Натан Джонс, Адони Маропис, Джейкоб Смит, Джон Шрэпнел, Сири Свеглер, Люси Барат
--Сюжет:
1193 год до нашей эры. Парис украл прекрасную Елену, жену царя Спарты Менелая. За честь Менелая вступается его брат — царь Агамемнон. Его армия под предводительством Ахиллеса подошла к Трое и взяла город в кровавую осаду, длившуюся долгих десять лет… Два мира будут воевать за честь и власть. Тысячи умрут за славу. И за любовь нация сгорит дотла.
- - Страна: США, Мальта, Великобритания
Продолжительность: 03:16:02

Файл
Кодек: MPEG4/ISO/AVC H.264
Формат: MKV
Качество: BDRip-AVC | 60 fps
Видео: 1024x424 (2.40:1) | 59.940 fps | 2.5 Мбит/сек
Аудио: AC3 | 5.1 | 48 kHz | 384 kbps | 16 bit | Дубляж + Гланц и Королева на реж. вставки |
Субтитры: русские (Полные), английские (Полные)

MedifInfo

Video
ID : 1
Format : AVC
Format/Info : Advanced Video Codec
Format profile : High@L4.1
Format settings, CABAC : Yes
Format settings, ReFrames : 4 frames
Codec ID : V_MPEG4/ISO/AVC
Duration : 3h 16mn
Bit rate : 2 505 Kbps
Width : 1 024 pixels
Height : 424 pixels
Display aspect ratio : 2.40:1
Frame rate : 59.940 fps
Color space : YUV
Chroma subsampling : 4:2:0
Bit depth : 8 bits
Scan type : Progressive
Bits/(Pixel*Frame) : 0.096
Stream size : 3.36 GiB (85%)
Writing library : x264 core 146 r2538 121396c
Encoding settings : cabac=1 / ref=3 / deblock=1:0:0 / analyse=0x3:0x113 / me=umh / subme=11 / psy=1 / psy_rd=1.00:0.10 / mixed_ref=1 / me_range=32 / chroma_me=1 / trellis=2 / 8x8dct=1 / cqm=0 / deadzone=21,11 / fast_pskip=0 / chroma_qp_offset=-3 / threads=12 / lookahead_threads=3 / sliced_threads=0 / nr=0 / decimate=1 / interlaced=0 / bluray_compat=0 / constrained_intra=0 / bframes=16 / b_pyramid=2 / b_adapt=2 / b_bias=0 / direct=3 / weightb=1 / open_gop=0 / weightp=2 / keyint=250 / keyint_min=25 / scenecut=40 / intra_refresh=0 / rc_lookahead=40 / rc=2pass / mbtree=1 / bitrate=2505 / ratetol=1.0 / qcomp=0.60 / qpmin=0 / qpmax=69 / qpstep=4 / cplxblur=20.0 / qblur=0.5 / vbv_maxrate=14000 / vbv_bufsize=14000 / nal_hrd=none / filler=0 / ip_ratio=1.40 / aq=1:1.00
Language : English
Default : Yes
Forced : No
Audio
ID : 2
Format : AC-3
Format/Info : Audio Coding 3
Mode extension : CM (complete main)
Codec ID : A_AC3
Duration : 3h 16mn
Bit rate mode : Constant
Bit rate : 384 Kbps
Channel(s) : 6 channels
Channel positions : Front: L C R, Side: L R, LFE
Sampling rate : 48.0 KHz
Bit depth : 16 bits
Compression mode : Lossy
Stream size : 538 MiB (13%)
Title : Dub + MVO на реж. вставки
Language : Russian
Default : Yes
Forced : No
Text #1
ID : 3
Format : UTF-8
Codec ID : S_TEXT/UTF8
Codec ID/Info : UTF-8 Plain Text
Title : Полные
Language : Russian
Default : No
Forced : No
Text #2
ID : 4
Format : UTF-8
Codec ID : S_TEXT/UTF8
Codec ID/Info : UTF-8 Plain Text
Title : Полные
Language : English
Default : No
Forced : No
Menu
00:00:00.000 : en:Chapter 1
00:07:33.411 : en:Chapter 2
00:12:00.302 : en:Chapter 3
00:12:59.445 : en:Chapter 4
00:15:55.370 : en:Chapter 5
00:20:56.922 : en:Chapter 6
00:23:15.434 : en:Chapter 7
00:25:52.675 : en:Chapter 8
00:29:59.255 : en:Chapter 9
00:38:14.041 : en:Chapter 10
00:46:43.842 : en:Chapter 11
00:49:46.315 : en:Chapter 12
00:53:19.528 : en:Chapter 13
00:55:10.222 : en:Chapter 14
00:58:07.858 : en:Chapter 15
01:08:42.326 : en:Chapter 16
01:12:22.337 : en:Chapter 17
01:15:45.707 : en:Chapter 18
01:19:10.162 : en:Chapter 19
01:22:46.836 : en:Chapter 20
01:25:09.686 : en:Chapter 21
01:28:07.738 : en:Chapter 22
01:31:15.552 : en:Chapter 23
01:36:02.756 : en:Chapter 24
01:37:35.890 : en:Chapter 25
01:40:35.404 : en:Chapter 26
01:45:16.518 : en:Chapter 27
01:48:44.475 : en:Chapter 28
01:50:31.750 : en:Chapter 29
01:52:36.541 : en:Chapter 30
01:53:08.448 : en:Chapter 31
01:59:16.356 : en:Chapter 32
02:07:11.832 : en:Chapter 33
02:07:39.109 : en:Chapter 34
02:09:22.671 : en:Chapter 35
02:12:48.585 : en:Chapter 36
02:22:00.843 : en:Chapter 37
02:22:43.429 : en:Chapter 38
02:23:17.922 : en:Chapter 39
02:24:56.396 : en:Chapter 40
02:26:45.085 : en:Chapter 41
02:29:18.824 : en:Chapter 42
02:37:12.828 : en:Chapter 43
02:49:25.825 : en:Chapter 44
03:06:38.876 : en:Chapter 45
 
Показать сообщения:    

Текущее время: 05-Дек 05:24

Часовой пояс: UTC + 3


Вы не можете начинать темы
Вы не можете отвечать на сообщения
Вы не можете редактировать свои сообщения
Вы не можете удалять свои сообщения
Вы не можете голосовать в опросах
Вы не можете прикреплять файлы к сообщениям
Вы не можете скачивать файлы