Тор: Рагнарёк / Thor: Ragnarok (2017) BDRip 1080p | 60 fps Стражи Галактики. Часть 2 / Guardians of the Galaxy Vol. 2 (2017) BDRip 1080p | 60 fps Мстители: Эра Альтрона / Avengers: Age of Ultron (2015) BDRip 1080p | 60 fps Валериан и город тысячи планет / Valerian and the City of a Thousand Planets (2017) BDRip 1080p | 60 fps Первый мститель: Противостояние / Captain America: Civil War (2016) BDRip 1080p | 60 fps Человек-паук: Возвращение домой / Spider-Man: Homecoming (2017) BDRip 1080p | 60 fps Мстители / The Avengers (2012) BDRip 720p | 60 fps Доктор Стрэндж / Doctor Strange (2016) BDRip 1080p | 60 fps
  1. Стаж:
    1 год 10 месяцев
    Сообщений:
    499
    Пол:
    Мужской
    Фильм «---» Фильм- Информация
    Название: Три метра над уровнем неба: Я тебя хочу
    Оригинальное название: Tengo ganas de ti
    Год выхода: 2012
    Жанр: драма, мелодрама
    Режиссер: Фернандо Гонзалез Молина
    Сценарий: Рамон Саласар, Федерико Моччиа
    Продюсер: Мерседес Гамеро, Алекс Пина, Хосеп Аморос
    В ролях: Марио Касас,Клара Лаго,Мария Вальверде,Марина Салас,Нереа Камачо,Альваро Сервантес,Диего Мартин,Кармен Элиас,Кристина Пласас,Хорди Бош
    --Сюжет:
    Проведя два года в Лондоне, Аче возвращается домой, чтобы начать новую жизнь: устроиться на работу, завести новых друзей. Однако многое изменилось и встреча с Джин заставляет Аче почувствовать то, что он чувствовал только к Баби — своей первой большой и настоящей любви…-- Страна: Испания
    Продолжительность: 02:03:33

    Файл
    Кодек: MPEG4/ISO/AVC H.264/High@L4.1
    Формат: MKV
    Качество: BDRip 1080p | 60 fps
    Видео: 1920 x 800 (2.400) | 59.940 fps | 15,0 Мбит/сек
    Аудио 1: AC-3| 5.1 | 48 kHz | 384 | 16 bit | Дубляж (Лицензия)
    Субтитры:

    MedifInfo

    Видео
    Идентификатор : 1
    Формат : AVC
    Формат/Информация : Advanced Video Codec
    Профиль формата : High@L4.1
    Параметр CABAC формата : Да
    Параметр ReFrames формата : 5 кадров
    Идентификатор кодека : V_MPEG4/ISO/AVC
    Продолжительность : 2 ч. 3 м.
    Битрейт : 15,0 Мбит/сек
    Ширина : 1920 пикселей
    Высота : 800 пикселей
    Соотношение сторон : 2,40:1
    Режим частоты кадров : Постоянный
    Частота кадров : 59,940 (60000/1001) кадров/сек
    Цветовое пространство : YUV
    Субдискретизация насыщенности : 4:2:0
    Битовая глубина : 8 бит
    Тип развёртки : Прогрессивная
    Бит/(Пиксели*Кадры) : 0.163
    Размер потока : 12,9 Гбайт (97%)
    Заголовок : Таляьба: 60-fps.org
    Библиотека кодирования : x264 core 146 r2538 121396c
    Настройки программы : cabac=1 / ref=5 / deblock=1:-3:-3 / analyse=0x3:0x113 / me=umh / subme=8 / psy=1 / psy_rd=1.00:0.25 / mixed_ref=1 / me_range=32 / chroma_me=1 / trellis=1 / 8x8dct=1 / cqm=0 / deadzone=6,6 / fast_pskip=1 / chroma_qp_offset=-4 / threads=12 / lookahead_threads=2 / sliced_threads=0 / nr=0 / decimate=0 / interlaced=0 / bluray_compat=0 / constrained_intra=0 / bframes=3 / b_pyramid=2 / b_adapt=2 / b_bias=0 / direct=3 / weightb=1 / open_gop=0 / weightp=2 / keyint=599 / keyint_min=59 / scenecut=40 / intra_refresh=0 / rc_lookahead=50 / rc=2pass / mbtree=1 / bitrate=15000 / ratetol=1.0 / qcomp=0.80 / qpmin=0 / qpmax=69 / qpstep=4 / cplxblur=20.0 / qblur=0.5 / vbv_maxrate=50000 / vbv_bufsize=50000 / nal_hrd=none / filler=0 / ip_ratio=1.10 / aq=1:0.50
    Язык : Spanish
    Default : Да
    Forced : Нет
    Аудио
    Идентификатор : 3
    Формат : AC-3
    Формат/Информация : Audio Coding 3
    Расширение режима : CM (complete main)
    Параметр Endianness формата : Big
    Идентификатор кодека : A_AC3
    Продолжительность : 2 ч. 3 м.
    Вид битрейта : Постоянный
    Битрейт : 384 Кбит/сек
    Каналы : 6 каналов
    Расположение каналов : Front: L C R, Side: L R, LFE
    Частота : 48,0 КГц
    Частота кадров : 31,250 кадров/сек (1536 spf)
    Битовая глубина : 16 бит
    Метод сжатия : С потерями
    Размер потока : 339 Мбайт (2%)
    Заголовок : Дубляж
    Язык : Russian
    Default : Да
    Forced : Нет
    Текст
    Идентификатор : 2
    Формат : PGS
    Режим смешивания : zlib
    Идентификатор кодека : S_HDMV/PGS
    Идентификатор кодека/Информация : Picture based subtitle format used on BDs/HD-DVDs
    Продолжительность : 10 м. 59 с.
    Битрейт : 26,7 Кбит/сек
    Count of elements : 253
    Размер потока : 2,10 Мбайт (0%)
    Язык : Russian
    Default : Да
    Forced : Нет


    Последний раз редактировалось: Талямба (2018-03-18 01:30), всего редактировалось 1 раз
  2. Стаж:
    1 год
    Сообщений:
    1
    Пол:
    Не указан
    У меня одного с 11минуты пропадает звук¿
    17-Мар-2018 11:39 (спустя 3 дня)
  3. Стаж:
    1 год 10 месяцев
    Сообщений:
    499
    Пол:
    Мужской
    9455У меня одного с 11минуты пропадает звук¿
    я проверю сегодня вечером,если что,то за 24 часа исправлю... ;-)
    17-Мар-2018 17:33 (спустя 5 часов)
  4. Стаж:
    1 год 10 месяцев
    Сообщений:
    499
    Пол:
    Мужской
    9456
    9455У меня одного с 11минуты пропадает звук¿
    я проверю сегодня вечером,если что,то за 24 часа исправлю... ;-)
    САРЯН ребята,фильм переделал,перезалил... !
    Теперь качайте эту версию,старую без звука советую удалить !
    18-Мар-2018 01:41 (спустя 8 часов)


Вы не можете начинать темы
Вы не можете отвечать на сообщения
Вы не можете редактировать свои сообщения
Вы не можете удалять свои сообщения
Вы не можете голосовать в опросах
Вы не можете прикреплять файлы к сообщениям
Вы не можете скачивать файлы