[Цитировать]
Гость

Три икса

-Название: Три икса
Оригинальное название: xXx
Год выпуска: 2002
Страна: США
Жанр: боевик, триллер
Продолжительность: 02:04:08
Перевод: Дубляж
Субтитры:русские (Полные), английские (Полные)-Режиссер: Роб Коэн / Rob Cohen-В ролях: Вин Дизель (Xander Cage), Азия Ардженто (Yelena), Мартон Чокаш (Yorgi), Сэмюэл Л. Джексон (Agent Augustus Eugene Gibbons), Майкл Руф (Agent Toby Lee Shavers), Рихи Мюллер (Milan Sova), Вернер Даен (Kirill), Петр Якл (Kolya), Ян Павел Филипенски (Viktor), Том Эверетт (Senator Dick Hotchkiss), Дэнни Трехо (El Jefe), Томас Йен Гриффит (Agent Jim McGrath)-Описание:
Ксандер Кэйдж - спортсмен-экстремал. Этот жестокий парень может сделать, то, что не в силах выполнить другие люди. Именно поэтому он привлекает к себе внимание Управления национальной безопасности. Оснащенный самой современной шпионской техникой и оружием, Кэйдж должен просочится в русские криминальные круги, находящиеся в Праге. Ничто не может помешать этому шпиону нового поколения ХХХ выполнить свою миссию, и никто не способен отвлечь его от задания. Никто, кроме таинственной девушки Елены...-Рейтинг
kinopoisk.ru: 7.296 (45 329)
imdb.com: 5.80 (120 199)
MPAA: PG-13 - Детям до 13 лет просмотр не желателен-Автор рипа:Tiberiumsun69
Качество: BDRip 1080p / 60 FPS
Формат: MKV
Видеокодек: MPEG-4 AVC/H.264
Битрейт видео: ~9486 kb/s
Размер кадра: 1920*792
Аудио 1 Русский: AC3 5.1, 640 kb/s, Дубляж BD CEE
Аудио 2 Английский: AC3 5.1, 640 kb/s
Навигация по главам: есть-

MI

Общее
Уникальный идентификатор : 238822900738304349000319522429117011534 (0xB3AB9E1A9F718449B542BAFE556A164E)
Полное имя : A:1080p 60fpsТри Икса 1080p 60fpsТри икса 1 1080p 60fps.mkv
Формат : Matroska
Версия формата : Version 4 / Version 2
Размер файла : 9,52 Гбайт
Продолжительность : 2 ч. 4 м.
Общий поток : 11,0 Мбит/сек
Дата кодирования : UTC 2014-07-25 15:08:17
Программа кодирования : mkvmerge v6.9.1 ('Blue Panther') 64bit built on Apr 18 2014 18:23:38
Библиотека кодирования : libebml v1.3.0 + libmatroska v1.4.1
Видео
Идентификатор : 1
Формат : AVC
Формат/Информация : Advanced Video Codec
Профиль формата : High@L4.1
Параметр CABAC формата : Да
Параметр ReFrames формата : 4 кадра
Идентификатор кодека : V_MPEG4/ISO/AVC
Продолжительность : 2 ч. 4 м.
Битрейт : 9486 Кбит/сек
Ширина : 1920 пикселей
Высота : 792 пикселя
Соотношение сторон : 2,40:1
Режим частоты кадров : Постоянный
Частота кадров : 59,880 кадров/сек
Частота кадров в оригинале : 59,940 кадров/сек
Цветовое пространство : YUV
Субдискретизация насыщенности : 4:2:0
Битовая глубина : 8 бит
Тип развёртки : Прогрессивная
Бит/(Пиксели*Кадры) : 0.104
Размер потока : 8,23 Гбайт (86%)
Библиотека кодирования : x264 core 130 r2273 b3065e6
Настройки программы : cabac=1 / ref=4 / deblock=1:-1:-1 / analyse=0x3:0 / me=umh / subme=9 / psy=1 / psy_rd=1.00:0.10 / mixed_ref=1 / me_range=42 / chroma_me=0 / trellis=2 / 8x8dct=1 / cqm=0 / deadzone=21,11 / fast_pskip=0 / chroma_qp_offset=-3 / threads=12 / lookahead_threads=1 / sliced_threads=0 / nr=0 / decimate=0 / interlaced=0 / bluray_compat=0 / constrained_intra=0 / bframes=5 / b_pyramid=2 / b_adapt=2 / b_bias=0 / direct=1 / weightb=1 / open_gop=0 / weightp=2 / keyint=594 / keyint_min=59 / scenecut=40 / intra_refresh=0 / rc=crf / mbtree=0 / crf=18.0 / qcomp=0.60 / qpmin=0 / qpmax=69 / qpstep=4 / ip_ratio=1.40 / pb_ratio=1.30 / aq=0
Язык : English
Default : Да
Forced : Нет
Аудио #1
Идентификатор : 2
Формат : AC-3
Формат/Информация : Audio Coding 3
Расширение режима : CM (complete main)
Параметр Endianness формата : Big
Идентификатор кодека : A_AC3
Продолжительность : 2 ч. 4 м.
Вид битрейта : Постоянный
Битрейт : 640 Кбит/сек
Каналы : 6 каналов
Расположение каналов : Front: L C R, Side: L R, LFE
Частота : 48,0 КГц
Битовая глубина : 16 бит
Метод сжатия : С потерями
Размер потока : 568 Мбайт (6%)
Заголовок : Dub
Язык : Russian
Default : Да
Forced : Нет
Аудио #2
Идентификатор : 3
Формат : AC-3
Формат/Информация : Audio Coding 3
Расширение режима : CM (complete main)
Параметр Endianness формата : Big
Идентификатор кодека : A_AC3
Продолжительность : 2 ч. 4 м.
Вид битрейта : Постоянный
Битрейт : 640 Кбит/сек
Каналы : 6 каналов
Расположение каналов : Front: L C R, Side: L R, LFE
Частота : 48,0 КГц
Битовая глубина : 16 бит
Метод сжатия : С потерями
Размер потока : 568 Мбайт (6%)
Заголовок : Original
Язык : English
Default : Нет
Forced : Нет
Текст #1
Идентификатор : 4
Формат : UTF-8
Идентификатор кодека : S_TEXT/UTF8
Идентификатор кодека/Информация : UTF-8 Plain Text
Заголовок : Full
Язык : Russian
Default : Нет
Forced : Нет
Текст #2
Идентификатор : 5
Формат : UTF-8
Идентификатор кодека : S_TEXT/UTF8
Идентификатор кодека/Информация : UTF-8 Plain Text
Заголовок : Full
Язык : English
Default : Нет
Forced : Нет
Меню
00:00:00.000 : en:Chapter 1
00:03:41.763 : en:Chapter 2
00:05:40.423 : en:Chapter 3
00:10:05.438 : en:Chapter 4
00:12:29.415 : en:Chapter 5
00:19:22.370 : en:Chapter 6
00:21:51.810 : en:Chapter 7
00:23:59.396 : en:Chapter 8
00:27:51.044 : en:Chapter 9
00:32:27.779 : en:Chapter 10
00:34:19.391 : en:Chapter 11
00:42:18.828 : en:Chapter 12
00:45:49.163 : en:Chapter 13
00:50:25.648 : en:Chapter 14
00:57:10.385 : en:Chapter 15
01:01:16.298 : en:Chapter 16
01:04:33.828 : en:Chapter 17
01:12:01.192 : en:Chapter 18
01:14:50.236 : en:Chapter 19
01:17:43.075 : en:Chapter 20
01:20:59.521 : en:Chapter 21
01:26:36.108 : en:Chapter 22
01:32:44.559 : en:Chapter 23
01:38:05.463 : en:Chapter 24
01:39:01.227 : en:Chapter 25
01:44:08.951 : en:Chapter 26
01:45:57.017 : en:Chapter 27
01:49:40.616 : en:Chapter 28

Скриншоты

Три икса 2: Новый уровень

-Название: Три икса 2: Новый уровень
Оригинальное название: xXx: State of the Union
Год выпуска: 2005
Страна: США
Жанр: боевик, триллер, криминал, приключения
Продолжительность: 01:40:58
Перевод: Дубляж
Субтитры:русские (Полные), английские (Полные)-Режиссер: Ли Тамахори / Lee Tamahori-В ролях: Уиллем Дефо (General George Deckert), Сэмюэл Л. Джексон (Agent Augustus Eugene Gibbons), Айс Кьюб (Darius Stone / XXX), Скотт Спидман (Agent Kyle Christopher Steele), Иксзибит (Zeke), Питер Штраусс (President James Sanford), Майкл Руф (Agent Toby Lee Shavers), Санни Мабри (Charlie Mayweather), Нона Гэй (Lola Jackson), Джон Дж. Коннолли (Lt. Alabama «Bama» Cobb), Рамон Де Окампо (Agent Meadows), Бэрри Сигизмонди (Bull)-Описание:
Америка снова в опасности, и на сей раз беда пришла откуда не ждали: удар по демократии был нанесен изнутри! Группа высокопоставленных заговорщиков в белом доме поднимает мятеж с целью захвата власти. Спецслужбы бессильны - бунтовщики разгромили Агентство Национальной Безопасности (АНБ).
Страна на грани хаоса и террора, но у чудом выжившего офицера АНБ Огастеса Гиббонса остается последний козырь, способный спасти положение. Это Дариус Стоун, крутой и хладнокровный суперагент XXI века, отобранный по сверхсекретной программе «Три Икса». Оставляя после себя смерть и разрушения, этот человек-армия вступает в битву, которая решит судьбу Америки и всего мира...-Рейтинг
kinopoisk.ru: 5.451 (13 991)
imdb.com: 4.20 (42 521)
MPAA: PG-13 - Детям до 13 лет просмотр не желателен-Автор рипа:Tiberiumsun69
-Качество: BDRip 1080p / 60 FPS
Формат: MKV
Битрейт видео: ~10100 kb/s
Размер кадра: 1920*800
Аудио 1 Русский: AC3 5.1, 448 kb/s, Дубляж BD CEE
Аудио 2 Английский: AC3 5.1, 640 kb/s
Навигация по главам: есть-

MI

Общее
Уникальный идентификатор : 171218351050156950279329412907357377823 (0x80CF747665E427C89A1F3073FF33151F)
Полное имя : A:1080p 60fpsТри Икса 1080p 60fpsТри икса 2 1080p 60fps.mkv
Формат : Matroska
Версия формата : Version 4 / Version 2
Размер файла : 8,03 Гбайт
Продолжительность : 1 ч. 40 м.
Общий поток : 11,4 Мбит/сек
Дата кодирования : UTC 2014-07-26 00:23:11
Программа кодирования : mkvmerge v6.9.1 ('Blue Panther') 64bit built on Apr 18 2014 18:23:38
Библиотека кодирования : libebml v1.3.0 + libmatroska v1.4.1
Видео
Идентификатор : 1
Формат : AVC
Формат/Информация : Advanced Video Codec
Профиль формата : High@L4.1
Параметр CABAC формата : Да
Параметр ReFrames формата : 4 кадра
Идентификатор кодека : V_MPEG4/ISO/AVC
Продолжительность : 1 ч. 40 м.
Битрейт : 10,1 Мбит/сек
Ширина : 1920 пикселей
Высота : 800 пикселей
Соотношение сторон : 2,40:1
Режим частоты кадров : Постоянный
Частота кадров : 59,880 кадров/сек
Частота кадров в оригинале : 59,940 кадров/сек
Цветовое пространство : YUV
Субдискретизация насыщенности : 4:2:0
Битовая глубина : 8 бит
Тип развёртки : Прогрессивная
Бит/(Пиксели*Кадры) : 0.110
Размер потока : 7,10 Гбайт (88%)
Библиотека кодирования : x264 core 130 r2273 b3065e6
Настройки программы : cabac=1 / ref=4 / deblock=1:-1:-1 / analyse=0x3:0 / me=umh / subme=9 / psy=1 / psy_rd=1.00:0.10 / mixed_ref=1 / me_range=42 / chroma_me=0 / trellis=2 / 8x8dct=1 / cqm=0 / deadzone=21,11 / fast_pskip=0 / chroma_qp_offset=-3 / threads=12 / lookahead_threads=1 / sliced_threads=0 / nr=0 / decimate=0 / interlaced=0 / bluray_compat=0 / constrained_intra=0 / bframes=5 / b_pyramid=2 / b_adapt=2 / b_bias=0 / direct=1 / weightb=1 / open_gop=0 / weightp=2 / keyint=594 / keyint_min=59 / scenecut=40 / intra_refresh=0 / rc=crf / mbtree=0 / crf=18.0 / qcomp=0.60 / qpmin=0 / qpmax=69 / qpstep=4 / ip_ratio=1.40 / pb_ratio=1.30 / aq=0
Язык : English
Default : Да
Forced : Нет
Аудио #1
Идентификатор : 2
Формат : AC-3
Формат/Информация : Audio Coding 3
Расширение режима : CM (complete main)
Параметр Endianness формата : Big
Идентификатор кодека : A_AC3
Продолжительность : 1 ч. 40 м.
Вид битрейта : Постоянный
Битрейт : 448 Кбит/сек
Каналы : 6 каналов
Расположение каналов : Front: L C R, Side: L R, LFE
Частота : 48,0 КГц
Битовая глубина : 16 бит
Метод сжатия : С потерями
Размер потока : 324 Мбайт (4%)
Заголовок : Dub
Язык : Russian
Default : Да
Forced : Нет
Аудио #2
Идентификатор : 3
Формат : AC-3
Формат/Информация : Audio Coding 3
Расширение режима : CM (complete main)
Параметр Endianness формата : Big
Идентификатор кодека : A_AC3
Продолжительность : 1 ч. 40 м.
Вид битрейта : Постоянный
Битрейт : 640 Кбит/сек
Каналы : 6 каналов
Расположение каналов : Front: L C R, Side: L R, LFE
Частота : 48,0 КГц
Битовая глубина : 16 бит
Метод сжатия : С потерями
Размер потока : 462 Мбайт (6%)
Заголовок : Original
Язык : English
Default : Нет
Forced : Нет
Текст #1
Идентификатор : 4
Формат : UTF-8
Идентификатор кодека : S_TEXT/UTF8
Идентификатор кодека/Информация : UTF-8 Plain Text
Заголовок : Full
Язык : Russian
Default : Нет
Forced : Нет
Текст #2
Идентификатор : 5
Формат : UTF-8
Идентификатор кодека : S_TEXT/UTF8
Идентификатор кодека/Информация : UTF-8 Plain Text
Заголовок : Full
Язык : English
Default : Нет
Forced : Нет
Меню
00:00:00.000 : en:Chapter 1
00:06:28.554 : en:Chapter 2
00:13:34.522 : en:Chapter 3
00:20:37.110 : en:Chapter 4
00:25:34.032 : en:Chapter 5
00:31:07.699 : en:Chapter 6
00:37:02.553 : en:Chapter 7
00:40:11.659 : en:Chapter 8
00:47:22.256 : en:Chapter 9
00:53:31.666 : en:Chapter 10
01:01:04.786 : en:Chapter 11
01:04:46.507 : en:Chapter 12
01:10:44.114 : en:Chapter 13
01:18:12.771 : en:Chapter 14
01:23:11.444 : en:Chapter 15
01:28:15.790 : en:Chapter 16

Скриншоты

[Цитировать]
Андрей 60

Спасибо за раздачу!

[Цитировать]
ENIGMA

Огромное Спасибо!
 
Показать сообщения:    

Текущее время: 08-Дек 19:03

Часовой пояс: UTC + 3


Вы не можете начинать темы
Вы не можете отвечать на сообщения
Вы не можете редактировать свои сообщения
Вы не можете удалять свои сообщения
Вы не можете голосовать в опросах
Вы не можете прикреплять файлы к сообщениям
Вы не можете скачивать файлы