1. Longevity:
    7 years
    Posts:
    2413
    Gender:
    Male
    «Леденящий ужас на волнах»- Информация
    Название: Треугольник
    Оригинальное название: Triangle
    Год выхода: 2009
    Жанр: детектив, триллер, ужасы
    Режиссер: Кристофер Смит
    Сценарий: Кристофер Смит
    Продюсер: Джули Бэйнс, Крис Браун, Джейсон Ньюмарк
    В ролях: Мелисса Джордж, Джошуа МакИвор, Джек Тейлор, Майкл Дорман, Генри Никсон, Рейчал Карпани, Эмма Ланг, Лиам Хемсворт, Брайан Пробетс
    --Сюжет:
    Грег приглашает свою подругу Джесс, молодую мать-одиночку, провести день на яхте в кругу своих друзей. Начавшийся сильный шторм переворачивает судно, и оставшиеся в живых вынуждены дожидаться помощи, цепляясь за перевернутый корпус яхты. Спасение приходит в виде огромного океанического лайнера. Судно оказывается пустым, часы на борту остановились. Но они не одни на этом огромном корабле — за ними кто-то неустанно следит…- Страна: Великобритания, Австралия
    Продолжительность: 01:38:52

    Файл
    Кодек: MPEG4/ISO/AVC/H.264
    Формат: MKV
    Качество: BDRip 720p | 60 fps
    Видео: 1280 x 544 (2.353) | 60.000 fps | 10.0 Мбит/сек
    Аудио 1: AC3 | 5.1 | 48 kHz | 448 kbps | 16 bit | Профессиональный двухголосый закадровый - R5 |
    Аудио 2: AC3 | 5.1 | 48 kHz | 448 kbps | 16 bit | Профессиональный многоголосый закадровый - ТВ-3 |
    Аудио 3: AC3 | 5.1 | 48 kHz | 640 kbps | 16 bit | Авторский одноголосый закадровый - Ю. Немахов |
    Аудио 4: AC3 | 5.1 | 48 kHz | 640 kbps | 16 bit | ENG |
    Субтитры: Русские, английские

    MedifInfo

    Видео
    Идентификатор : 1
    Формат : AVC
    Формат/Информация : Advanced Video Codec
    Профиль формата : [email protected]
    Параметр CABAC формата : Да
    Параметр ReFrames формата : 5 кадров
    Идентификатор кодека : V_MPEG4/ISO/AVC
    Продолжительность : 1 ч. 38 м.
    Битрейт : 7999 Кбит/сек
    Ширина : 1280 пикселей
    Высота : 544 пикселя
    Соотношение сторон : 2,35:1
    Режим частоты кадров : Постоянный
    Частота кадров : 60,000 кадров/сек
    Цветовое пространство : YUV
    Субдискретизация насыщенности : 4:2:0
    Битовая глубина : 8 бит
    Тип развёртки : Прогрессивная
    Бит/(Пиксели*Кадры) : 0.191
    Размер потока : 5,39 Гбайт (77%)
    Заголовок : www.60-fps.org
    Библиотека кодирования : x264 core 148 r2638 7599210
    Настройки программы : cabac=1 / ref=5 / deblock=1:-3:-3 / analyse=0x3:0x113 / me=umh / subme=8 / psy=1 / psy_rd=1.00:0.25 / mixed_ref=1 / me_range=32 / chroma_me=1 / trellis=1 / 8x8dct=1 / cqm=0 / deadzone=6,6 / fast_pskip=1 / chroma_qp_offset=-4 / threads=12 / lookahead_threads=2 / sliced_threads=0 / nr=0 / decimate=0 / interlaced=0 / bluray_compat=0 / constrained_intra=0 / bframes=3 / b_pyramid=2 / b_adapt=2 / b_bias=0 / direct=3 / weightb=1 / open_gop=0 / weightp=2 / keyint=600 / keyint_min=59 / scenecut=40 / intra_refresh=0 / rc_lookahead=50 / rc=2pass / mbtree=1 / bitrate=7999 / ratetol=1.0 / qcomp=0.80 / qpmin=0 / qpmax=69 / qpstep=4 / cplxblur=20.0 / qblur=0.5 / vbv_maxrate=62500 / vbv_bufsize=78125 / nal_hrd=none / filler=0 / ip_ratio=1.10 / aq=1:0.50
    Default : Да
    Forced : Нет
    Аудио #1
    Идентификатор : 2
    Формат : AC-3
    Формат/Информация : Audio Coding 3
    Расширение режима : CM (complete main)
    Параметр Endianness формата : Big
    Идентификатор кодека : A_AC3
    Продолжительность : 1 ч. 38 м.
    Вид битрейта : Постоянный
    Битрейт : 448 Кбит/сек
    Каналы : 6 каналов
    Расположение каналов : Front: L C R, Side: L R, LFE
    Частота : 48,0 КГц
    Битовая глубина : 16 бит
    Метод сжатия : С потерями
    Размер потока : 317 Мбайт (4%)
    Заголовок : Профессиональный двухголосый закадровый - R5
    Язык : Russian
    Default : Да
    Forced : Нет
    Аудио #2
    Идентификатор : 3
    Формат : AC-3
    Формат/Информация : Audio Coding 3
    Расширение режима : CM (complete main)
    Параметр Endianness формата : Big
    Идентификатор кодека : A_AC3
    Продолжительность : 1 ч. 38 м.
    Вид битрейта : Постоянный
    Битрейт : 448 Кбит/сек
    Каналы : 6 каналов
    Расположение каналов : Front: L C R, Side: L R, LFE
    Частота : 48,0 КГц
    Битовая глубина : 16 бит
    Метод сжатия : С потерями
    Размер потока : 317 Мбайт (4%)
    Заголовок : Профессиональный многоголосый закадровый - ТВ-3
    Язык : Russian
    Default : Нет
    Forced : Нет
    Аудио #3
    Идентификатор : 4
    Формат : AC-3
    Формат/Информация : Audio Coding 3
    Расширение режима : CM (complete main)
    Параметр Endianness формата : Big
    Идентификатор кодека : A_AC3
    Продолжительность : 1 ч. 38 м.
    Вид битрейта : Постоянный
    Битрейт : 640 Кбит/сек
    Каналы : 6 каналов
    Расположение каналов : Front: L C R, Side: L R, LFE
    Частота : 48,0 КГц
    Битовая глубина : 16 бит
    Метод сжатия : С потерями
    Размер потока : 453 Мбайт (6%)
    Заголовок : Авторский одноголосый закадровый - Ю. Немахов
    Язык : Russian
    Default : Нет
    Forced : Нет
    Аудио #4
    Идентификатор : 5
    Формат : AC-3
    Формат/Информация : Audio Coding 3
    Расширение режима : CM (complete main)
    Параметр Endianness формата : Big
    Идентификатор кодека : A_AC3
    Продолжительность : 1 ч. 38 м.
    Вид битрейта : Постоянный
    Битрейт : 640 Кбит/сек
    Каналы : 6 каналов
    Расположение каналов : Front: L C R, Side: L R, LFE
    Частота : 48,0 КГц
    Битовая глубина : 16 бит
    Метод сжатия : С потерями
    Размер потока : 453 Мбайт (6%)
    Заголовок : eng
    Язык : English
    Default : Нет
    Forced : Нет
    Текст #1
    Идентификатор : 6
    Формат : UTF-8
    Идентификатор кодека : S_TEXT/UTF8
    Идентификатор кодека/Информация : UTF-8 Plain Text
    Заголовок : notabenoid
    Язык : Russian
    Default : Нет
    Forced : Нет
    Текст #2
    Идентификатор : 7
    Формат : UTF-8
    Идентификатор кодека : S_TEXT/UTF8
    Идентификатор кодека/Информация : UTF-8 Plain Text
    Язык : English
    Default : Нет
    Forced : Нет
    Меню
    00:00:00.000 : en:Chapter 1
    00:08:41.457 : en:Chapter 2
    00:19:36.040 : en:Chapter 3
    00:27:10.500 : en:Chapter 4
    00:33:28.208 : en:Chapter 5
    00:38:16.791 : en:Chapter 6
    00:43:46.375 : en:Chapter 7
    00:50:34.458 : en:Chapter 8
    00:58:57.666 : en:Chapter 9
    01:01:51.083 : en:Chapter 10
    01:09:19.375 : en:Chapter 11
    01:19:43.666 : en:Chapter 12
    01:26:37.791 : en:Chapter 13
    01:29:16.707 : en:Chapter 14
    01:31:11.582 : en:Chapter 15
    01:34:19.375 : en:Chapter 16

    Release was prepared by 60-fps.org

  2. Longevity:
    4 years 7 months
    Posts:
    3
    Gender:
    Male
    thanks for the upload Смеюсь
    12-Mar-2017 09:50 (after 14 days)
  3. Longevity:
    6 years 2 months
    Posts:
    149
    Gender:
    Male
    Большое спасибо Овации Овации Овации
    Фильм обалденный! Улыбаюсь
    15-Mar-2017 08:09 (after 2 days 22 hours)
  4. Longevity:
    4 years 3 months
    Posts:
    10
    Gender:
    Unknown
    Отличный фильм.Довольно оригинальный сюжет.Вроде Корабля призрака.Да ещё в таком качестве,плюс озвучка Немахова.Большое спасибо. Улыбаюсь
    10-Jul-2017 21:20 (after 3 months 26 days)
  5. Longevity:
    4 years 3 months
    Posts:
    10
    Gender:
    Unknown
    Раздавать будем?Скачаю тоже буду раздавать.Но что б раздавать скачать хочется. Привет
    11-Jul-2017 07:24 (after 10 hours)
  6. Longevity:
    4 years 10 months
    Posts:
    11
    Gender:
    Unknown
    Дайте скорости,если можно
    27-Jan-2019 11:59 (after 1 year 6 months)


You cannot post new topics in this forum
You cannot reply to topics in this forum
You cannot edit your posts in this forum
You cannot delete your posts in this forum
You cannot vote in polls in this forum
You cannot attach files in this forum
You cannot download files in this forum