VIP

Интерстеллар / Interstellar (2014) BDRip 1080p | IMAX Edition | 60fps Проект Power / Project Power (2020) WEBRip 1080p | 60 fps Новые мутанты / The New Mutants (2020) BDRip 1080p | 60 fps Доктор Стрэндж / Doctor Strange (2016) BDRip 1080p | 60 fps Грань будущего / Edge of Tomorrow (2014) BDRip 1080p | 60 fps Первый мститель: Противостояние / Captain America: Civil War (2016) BDRip 1080p | 60 fps Закат цивилизации / Extinction (2018) BDRip 1080p | 60 fps Первый мститель / Captain America: The First Avenger (2011) BDRip 1080p | 60 fps
  1. Longevity:
    6 years 4 months
    Posts:
    2414
    Gender:
    Male
    «Спасется лишь один из миров» Информация
    Название: Трансформеры: Последний рыцарь
    Оригинальное название: Transformers: The Last Knight
    Год выхода: 2017
    Жанр: Фантастика, боевик, триллер, приключения
    Режиссер: Майкл Бэй
    Сценарий: Артур Маркам, Мэтт Холлоуэй, Кен Нолан
    Продюсер: Майкл Бэй, Йен Брайс, Мэттью Кохан
    В ролях: Марк Уолберг, Энтони Хопкинс, Джош Дюамель, Лора Хэддок, Сантьяго Кабрера, Изабела Монер, Джеррод Кармайкл, Стэнли Туччи, Лиам Гэрриган, Мартин МакКриди

    Сюжет:
    Оптимус Прайм исчез. Люди ведут войну с Трансформерами. Ключ к нашему будущему погребен в тайнах прошлого, в скрытой истории Трансформеров на Земле… Миссия по спасению мира ложится на плечи разношерстной компании, состоящей из Кейда Йегера, Бамблби, английского лорда и профессора из Оксфорда. Пришла пора действовать! Жертвы станут героями. Герои станут злодеями. Выстоит только один мир: их или наш.

    Страна: США
    Продолжительность: 02:34:39

    Файл
    Кодек: MPEG4/ISO/AVC/H.264
    Формат: MKV
    Качество: BDRip 720p | 60 fps
    Видео: 1280 x 672 (1.905) | 59.940 fps | 12.0 Мбит/сек
    Аудио 01: AC3 | 5.1 | 48 kHz | 384 kbps | 16 bit | Дубляж - iTunes |
    Аудио 02: AC3 | 5.1 | 48 kHz | 640 kbps | 16 bit | english |
    Субтитры: Русские (forced, full), английские

    MedifInfo

    Видео
    Идентификатор : 1
    Формат : AVC
    Формат/Информация : Advanced Video Codec
    Профиль формата : [email protected]
    Параметр CABAC формата : Да
    Параметр ReFrames формата : 3 кадра
    Идентификатор кодека : V_MPEG4/ISO/AVC
    Продолжительность : 2 ч. 34 м.
    Вид битрейта : Переменный
    Битрейт : 11,7 Мбит/сек
    Максимальный битрейт : 12,0 Мбит/сек
    Ширина : 1280 пикселей
    Высота : 672 пикселя
    Соотношение сторон : 1,905
    Режим частоты кадров : Постоянный
    Частота кадров : 59,880 кадров/сек
    Частота кадров в оригинале : 59,940 кадров/сек
    Стандарт вещания : PAL
    Цветовое пространство : YUV
    Субдискретизация насыщенности : 4:2:0
    Битовая глубина : 8 бит
    Тип развёртки : Прогрессивная
    Бит/(Пиксели*Кадры) : 0.227
    Размер потока : 12,6 Гбайт (90%)
    Заголовок : www.60-fps.org
    Язык : English
    Default : Да
    Forced : Нет
    Основные цвета : BT.709
    Характеристики трансфера : BT.709
    Коэффициенты матрицы : BT.709
    colour_range : Limited
    Аудио #1
    Идентификатор : 2
    Формат : AC-3
    Формат/Информация : Audio Coding 3
    Расширение режима : CM (complete main)
    Параметр Endianness формата : Big
    Идентификатор кодека : A_AC3
    Продолжительность : 2 ч. 34 м.
    Вид битрейта : Постоянный
    Битрейт : 384 Кбит/сек
    Каналы : 6 каналов
    Расположение каналов : Front: L C R, Side: L R, LFE
    Частота : 48,0 КГц
    Битовая глубина : 16 бит
    Метод сжатия : С потерями
    Размер потока : 425 Мбайт (3%)
    Заголовок : Дубляж - iTunes
    Язык : Russian
    Default : Да
    Forced : Нет
    Аудио #2
    Идентификатор : 3
    Формат : AC-3
    Формат/Информация : Audio Coding 3
    Расширение режима : CM (complete main)
    Параметр Endianness формата : Big
    Идентификатор кодека : A_AC3
    Продолжительность : 2 ч. 34 м.
    Вид битрейта : Постоянный
    Битрейт : 640 Кбит/сек
    Каналы : 6 каналов
    Расположение каналов : Front: L C R, Side: L R, LFE
    Частота : 48,0 КГц
    Битовая глубина : 16 бит
    Метод сжатия : С потерями
    Размер потока : 708 Мбайт (5%)
    Заголовок : Original
    Язык : English
    Default : Нет
    Forced : Нет
    Текст #1
    Идентификатор : 4
    Формат : UTF-8
    Идентификатор кодека : S_TEXT/UTF8
    Идентификатор кодека/Информация : UTF-8 Plain Text
    Заголовок : Forced
    Язык : Russian
    Default : Да
    Forced : Нет
    Текст #2
    Идентификатор : 5
    Формат : UTF-8
    Идентификатор кодека : S_TEXT/UTF8
    Идентификатор кодека/Информация : UTF-8 Plain Text
    Заголовок : Full
    Язык : Russian
    Default : Нет
    Forced : Нет
    Текст #3
    Идентификатор : 6
    Формат : UTF-8
    Идентификатор кодека : S_TEXT/UTF8
    Идентификатор кодека/Информация : UTF-8 Plain Text
    Заголовок : SDH
    Язык : English
    Default : Нет
    Forced : Нет
    Меню
    00:00:00.000 : en:00:00:00.000
    00:06:36.104 : en:00:06:36.104
    00:14:03.468 : en:00:14:03.468
    00:21:45.763 : en:00:21:45.763
    00:27:53.255 : en:00:27:53.255
    00:33:53.907 : en:00:33:53.907
    00:40:08.906 : en:00:40:08.906
    00:46:58.941 : en:00:46:58.941
    00:53:25.786 : en:00:53:25.786
    01:02:02.928 : en:01:02:02.928
    01:08:47.081 : en:01:08:47.081
    01:14:37.223 : en:01:14:37.223
    01:20:10.180 : en:01:20:10.180
    01:29:13.390 : en:01:29:13.390
    01:37:59.499 : en:01:37:59.499
    01:44:57.583 : en:01:44:57.583
    01:51:15.502 : en:01:51:15.502
    01:57:59.447 : en:01:57:59.447
    02:06:09.729 : en:02:06:09.729
    02:10:54.096 : en:02:10:54.096
    02:16:01.153 : en:02:16:01.153
    02:21:42.619 : en:02:21:42.619
    02:25:17.292 : en:02:25:17.292

    Release was prepared by 60-fps.org

  2. Longevity:
    5 years 6 months
    Posts:
    149
    Gender:
    Male
    Большое Спасибо !
    27-Oct-2017 08:45 (after 1 month 6 days)
  3. Longevity:
    3 years 7 months
    Posts:
    7
    Gender:
    Male
    Красота то какая :) Огромное спасибо ;)
    29-Oct-2017 12:22 (after 2 days 3 hours)
  4. Longevity:
    4 years 3 months
    Posts:
    1
    Gender:
    Unknown
    Трансформеры: Последний рыцарь / Transformers: The Last Knight (2017) BDRip 720p | 60 fps
    Здравствуйте, администратор. После редизайна не могу найти кнопку скачки раздачи. Покажите её местонахождение, пожалуйста. Спасибо.
    04-Nov-2017 23:11 (after 6 days)
  5. Longevity:
    4 years 6 months
    Posts:
    1575
    Gender:
    Male
    8895
    Трансформеры: Последний рыцарь / Transformers: The Last Knight (2017) BDRip 720p | 60 fps
    Здравствуйте, администратор. После редизайна не могу найти кнопку скачки раздачи. Покажите её местонахождение, пожалуйста. Спасибо.
    она такая большая,ЗЕЛЁНАЯ...
    над синей кнопкой СПИСОК ФАЙЛОВ...
    04-Nov-2017 23:20 (after 9 minutes)
  6. Longevity:
    3 years 3 months
    Posts:
    1
    Gender:
    Unknown
    спасибо за качество
    30-May-2018 23:05 (after 6 months 25 days)


You cannot post new topics in this forum
You cannot reply to topics in this forum
You cannot edit your posts in this forum
You cannot delete your posts in this forum
You cannot vote in polls in this forum
You cannot attach files in this forum
You cannot download files in this forum