Аватар / Avatar (2009) BDRip 1080p | 120 fps | Extended Collector's Cut | Experimental Мстители: Война бесконечности / Avengers: Infinity War (2018) BDRip 1080p | 120 fps Хан Соло: Звёздные войны. Истории / Solo: A Star Wars Story (2018) BDRip 1080p | Локализованная версия | 120 fps Трансформеры: Месть падших / Transformers: Revenge of the Fallen (2009) BDRip 1080p | IMAX Edition | 120 fps Чужой / Alien (1979) BDRip 1080p | Director's Cut | 120 fps Аватар / Avatar (2009) BDRip 720p | Extended Cut | 95 fps Чужие / Aliens (1986) BDRip 1080p | Special Edition | 120 fps
Статистика раздачи
Размер:  1,74 GB   |    Зарегистрирован:  23 дня   |    Скачан:  28 раз

Полного источника не было: 22 часа

 
 
 
  1. Стаж:
    4 года
    Сообщений:
    2414
    Пол:
    Мужской
    «Месть неминуема» Информация
    Название: Трансформеры: Месть падших
    Оригинальное название: Transformers: Revenge of the Fallen
    Год выхода: 2009
    Жанр: фантастика, боевик, триллер, приключения
    Режиссер: Майкл Бэй
    Сценарий: Эрен Крюгер, Роберто Орси, Алекс Куртцман
    Продюсер: Йен Брайс, Том ДеСанто, Лоренцо Ди Бонавентура
    В ролях: Шайа ЛаБаф, Меган Фокс, Джош Дюамель, Тайриз Гибсон, Джон Туртурро, Рамон Родригес, Кевин Данн, Джули Уайт, Изабель Лукас, Джон Бенжамин Хикки

    Сюжет:
    Прошло два года с тех пор, как юный Сэм Уитвикки спас Вселенную, предотвратив глобальную битву между враждующими воинственными расами инопланетных роботов. Несмотря на свои героические подвиги, Сэм остается обычным подростком с обычными проблемами — поступлением в колледж и родителями. Разумеется, отъезд будет тяжело воспринят лучшим другом, роботом — телохранителем Бамблби.
    Сэм изо всех сил пытается забыть о конфликте в Мишн Сити и вернуться к нормальной жизни. Однако битва между Автоботами и Десептиконами, несмотря на гриф полной секретности, многое изменила…

    Страна: США
    Продолжительность: 02:30:24

    Файл
    Кодек: H.264
    Формат: MKV
    Качество: BDRip 1080p | 120 fps
    Видео: 1920 x 1080 (1.778) | 119.880 fps | 59.0 Мбит/сек
    Аудио 01: DTS-HD MA | 5.1 | 48 kHz | 4011 kbps | 24 bit | Дубляж |
    Аудио 02: AC3 | 5.1 | 48 kHz | 448 kbps | 16 bit | Дубляж - Украина |
    Аудио 03: DTS-HD MA | 5.1 | 48 kHz | 3947 kbps | 24 bit | Ю.Сербин |
    Аудио 04: DTS-HD MA | 5.1 | 48 kHz | 3926 kbps | 24 bit | А.Гаврилов |
    Аудио 05: DTS-HD MA | 5.1 | 48 kHz | 3939 kbps | 24 bit | Д.Строев |
    Аудио 06: DTS-HD MA | 5.1 | 48 kHz | 4659 kbps | 24 bit | english |
    Аудио 02: AC3 | 2.0 | 48 kHz | 224 kbps | 24 bit | Commentary by Michael Bay |
    Субтитры: Russian (надписи и пр.), Russian (Blu-ray CEE), Ukrainian (надписи и пр.), Ukrainian (Blu-ray CEE), English, English (SDH)

    MedifInfo

    Формат : Matroska
    Версия формата : Version 4 / Version 2
    Размер файла : 84,0 Гбайт
    Продолжительность : 2 ч. 30 м.
    Общий поток : 79,9 Мбит/сек
    Дата кодирования : UTC 2018-09-22 08:02:09
    Программа кодирования : mkvmerge v26.0.0 ('In The Game') 64-bit
    Библиотека кодирования : libebml v1.3.6 + libmatroska v1.4.9
    Видео
    Идентификатор : 1
    Формат : AVC
    Формат/Информация : Advanced Video Codec
    Профиль формата : High@L4.1
    Настройки формата : CABAC / 4 Ref Frames
    Параметр CABAC формата : Да
    Параметр RefFrames формата : 4 кадра
    Идентификатор кодека : V_MPEG4/ISO/AVC
    Продолжительность : 2 ч. 30 м.
    Битрейт : 59,0 Мбит/сек
    Ширина : 1920 пикселей
    Высота : 1080 пикселей
    Соотношение сторон : 16:9
    Режим частоты кадров : Переменный
    Частота кадров : 119,880 кадров/сек
    Цветовое пространство : YUV
    Субдискретизация насыщенности : 4:2:0
    Битовая глубина : 8 бит
    Тип развёртки : Прогрессивная
    Бит/(Пиксели*Кадры) : 0.237
    Размер потока : 61,7 Гбайт (73%)
    Заголовок : Трансформеры: Месть падших / Transformers: Revenge of the Fallen (2009) BDRip 1080p | IMAX Edition | 120 fps
    Библиотека кодирования : x264 core 152 r2851 ba24899
    Настройки программы : cabac=1 / ref=3 / deblock=1:-3:-3 / analyse=0x3:0x113 / me=hex / subme=7 / psy=1 / psy_rd=1.00:0.25 / mixed_ref=1 / me_range=16 / chroma_me=1 / trellis=1 / 8x8dct=1 / cqm=0 / deadzone=6,6 / fast_pskip=1 / chroma_qp_offset=-4 / threads=12 / lookahead_threads=2 / sliced_threads=0 / nr=0 / decimate=0 / interlaced=0 / bluray_compat=0 / constrained_intra=0 / bframes=3 / b_pyramid=2 / b_adapt=1 / b_bias=0 / direct=1 / weightb=1 / open_gop=0 / weightp=2 / keyint=1199 / keyint_min=119 / scenecut=40 / intra_refresh=0 / rc_lookahead=40 / rc=2pass / mbtree=1 / bitrate=58999 / ratetol=1.0 / qcomp=0.80 / qpmin=0 / qpmax=69 / qpstep=4 / cplxblur=20.0 / qblur=0.5 / vbv_maxrate=62500 / vbv_bufsize=78125 / nal_hrd=none / filler=0 / ip_ratio=1.10 / aq=1:0.50
    Default : Да
    Forced : Нет
    Аудио #1
    Идентификатор : 2
    Формат : DTS
    Формат/Информация : Digital Theater Systems
    Профиль формата : MA / Core
    Идентификатор кодека : A_DTS
    Продолжительность : 2 ч. 30 м.
    Вид битрейта : Переменный / Постоянный
    Битрейт : 4010 Кбит/сек / 1509 Кбит/сек
    Каналы : 6 каналов
    Расположение каналов : Front: L C R, Side: L R, LFE
    Частота : 48,0 КГц
    Частота кадров : 93,750 кадра/сек (512 SPF)
    Битовая глубина : 24 бит
    Метод сжатия : Без потерь / Lossy
    Размер потока : 4,21 Гбайт (5%)
    Заголовок : Дубляж
    Язык : Russian
    Default : Да
    Forced : Нет
    Аудио #2
    Идентификатор : 3
    Формат : AC-3
    Формат/Информация : Audio Coding 3
    Идентификатор кодека : A_AC3
    Продолжительность : 2 ч. 30 м.
    Вид битрейта : Постоянный
    Битрейт : 448 Кбит/сек
    Каналы : 6 каналов
    Расположение каналов : Front: L C R, Side: L R, LFE
    Частота : 48,0 КГц
    Частота кадров : 31,250 кадров/сек (1536 SPF)
    Битовая глубина : 16 бит
    Метод сжатия : С потерями
    Размер потока : 482 Мбайт (1%)
    Заголовок : ДУбляж
    Язык : Ukrainian
    ServiceKind/String : Complete Main
    Default : Нет
    Forced : Нет
    Аудио #3
    Идентификатор : 4
    Формат : DTS
    Формат/Информация : Digital Theater Systems
    Профиль формата : MA / Core
    Идентификатор кодека : A_DTS
    Продолжительность : 2 ч. 30 м.
    Вид битрейта : Переменный / Постоянный
    Битрейт : 3947 Кбит/сек / 1509 Кбит/сек
    Каналы : 6 каналов
    Расположение каналов : Front: L C R, Side: L R, LFE
    Частота : 48,0 КГц
    Частота кадров : 93,750 кадра/сек (512 SPF)
    Битовая глубина : 24 бит
    Метод сжатия : Без потерь / Lossy
    Размер потока : 4,15 Гбайт (5%)
    Заголовок : Ю.Сербин
    Язык : Russian
    Default : Нет
    Forced : Нет
    Аудио #4
    Идентификатор : 5
    Формат : DTS
    Формат/Информация : Digital Theater Systems
    Профиль формата : MA / Core
    Идентификатор кодека : A_DTS
    Продолжительность : 2 ч. 30 м.
    Вид битрейта : Переменный / Постоянный
    Битрейт : 3926 Кбит/сек / 1509 Кбит/сек
    Каналы : 6 каналов
    Расположение каналов : Front: L C R, Side: L R, LFE
    Частота : 48,0 КГц
    Частота кадров : 93,750 кадра/сек (512 SPF)
    Битовая глубина : 24 бит
    Метод сжатия : Без потерь / Lossy
    Размер потока : 4,13 Гбайт (5%)
    Заголовок : А.Гаврилов
    Язык : Russian
    Default : Нет
    Forced : Нет
    Аудио #5
    Идентификатор : 6
    Формат : DTS
    Формат/Информация : Digital Theater Systems
    Профиль формата : MA / Core
    Идентификатор кодека : A_DTS
    Продолжительность : 2 ч. 30 м.
    Вид битрейта : Переменный / Постоянный
    Битрейт : 3939 Кбит/сек / 1509 Кбит/сек
    Каналы : 6 каналов
    Расположение каналов : Front: L C R, Side: L R, LFE
    Частота : 48,0 КГц
    Частота кадров : 93,750 кадра/сек (512 SPF)
    Битовая глубина : 24 бит
    Метод сжатия : Без потерь / Lossy
    Размер потока : 4,14 Гбайт (5%)
    Заголовок : Д.Строев
    Язык : Russian
    Default : Нет
    Forced : Нет
    Аудио #6
    Идентификатор : 7
    Формат : DTS
    Формат/Информация : Digital Theater Systems
    Профиль формата : MA / Core
    Идентификатор кодека : A_DTS
    Продолжительность : 2 ч. 30 м.
    Вид битрейта : Переменный / Постоянный
    Битрейт : 4659 Кбит/сек / 1509 Кбит/сек
    Каналы : 6 каналов
    Расположение каналов : Front: L C R, Side: L R, LFE
    Частота : 48,0 КГц
    Частота кадров : 93,750 кадра/сек (512 SPF)
    Битовая глубина : 24 бит
    Метод сжатия : Без потерь / Lossy
    Размер потока : 4,89 Гбайт (6%)
    Заголовок : english
    Язык : English
    Default : Нет
    Forced : Нет
    Аудио #7
    Идентификатор : 8
    Формат : AC-3
    Формат/Информация : Audio Coding 3
    Идентификатор кодека : A_AC3
    Продолжительность : 2 ч. 30 м.
    Вид битрейта : Постоянный
    Битрейт : 224 Кбит/сек
    Каналы : 2 канала
    Расположение каналов : Front: L R
    Частота : 48,0 КГц
    Частота кадров : 31,250 кадров/сек (1536 SPF)
    Битовая глубина : 16 бит
    Метод сжатия : С потерями
    Размер потока : 241 Мбайт (0%)
    Заголовок : Commentary by Michael Bay
    Язык : English
    ServiceKind/String : Complete Main
    Default : Нет
    Forced : Нет
    Текст #1
    Идентификатор : 9
    Формат : PGS
    Режим смешивания : zlib
    Идентификатор кодека : S_HDMV/PGS
    Идентификатор кодека/Информация : Picture based subtitle format used on BDs/HD-DVDs
    Продолжительность : 1 ч. 58 м.
    Битрейт : 371 бит/сек
    ElementCount : 38
    Размер потока : 323 Кбайт (0%)
    Default : Да
    Forced : Нет
    Текст #2
    Идентификатор : 10
    Формат : PGS
    Режим смешивания : zlib
    Идентификатор кодека : S_HDMV/PGS
    Идентификатор кодека/Информация : Picture based subtitle format used on BDs/HD-DVDs
    Продолжительность : 2 ч. 22 м.
    Битрейт : 32,0 Кбит/сек
    ElementCount : 3750
    Размер потока : 32,6 Мбайт (0%)
    Default : Нет
    Forced : Нет
    Текст #3
    Идентификатор : 11
    Формат : PGS
    Режим смешивания : zlib
    Идентификатор кодека : S_HDMV/PGS
    Идентификатор кодека/Информация : Picture based subtitle format used on BDs/HD-DVDs
    Продолжительность : 1 ч. 45 м.
    Битрейт : 169 бит/сек
    ElementCount : 22
    Размер потока : 131 Кбайт (0%)
    Default : Нет
    Forced : Нет
    Текст #4
    Идентификатор : 12
    Формат : PGS
    Режим смешивания : zlib
    Идентификатор кодека : S_HDMV/PGS
    Идентификатор кодека/Информация : Picture based subtitle format used on BDs/HD-DVDs
    Продолжительность : 2 ч. 22 м.
    Битрейт : 32,4 Кбит/сек
    ElementCount : 3754
    Размер потока : 33,0 Мбайт (0%)
    Default : Нет
    Forced : Нет
    Текст #5
    Идентификатор : 13
    Формат : PGS
    Режим смешивания : zlib
    Идентификатор кодека : S_HDMV/PGS
    Идентификатор кодека/Информация : Picture based subtitle format used on BDs/HD-DVDs
    Продолжительность : 2 ч. 22 м.
    Битрейт : 43,6 Кбит/сек
    ElementCount : 3694
    Размер потока : 44,4 Мбайт (0%)
    Default : Нет
    Forced : Нет
    Текст #6
    Идентификатор : 14
    Формат : PGS
    Режим смешивания : zlib
    Идентификатор кодека : S_HDMV/PGS
    Идентификатор кодека/Информация : Picture based subtitle format used on BDs/HD-DVDs
    Продолжительность : 2 ч. 22 м.
    Битрейт : 46,8 Кбит/сек
    ElementCount : 3974
    Размер потока : 47,7 Мбайт (0%)
    Default : Нет
    Forced : Нет
    Внимание.
    В торрент файле содержится семпл !!!
    За приобретением полного фильма , писать в личку автору .
    Трансформеры Месть падших (2009) BDRip 1080p_IMAX Edition_120 fps_семпл.mkv.torrent
    Зарегистрирован 2018-09-22 13:08
    2810C7845AE875416440C07BB0FE8597C56896D5
    проверено
    28 раз
    0
    0
    Похожие Темы


Вы не можете начинать темы
Вы не можете отвечать на сообщения
Вы не можете редактировать свои сообщения
Вы не можете удалять свои сообщения
Вы не можете голосовать в опросах
Вы не можете прикреплять файлы к сообщениям
Вы можете скачивать файлы